.
Авторизация | Регистрация

Торрент скачать бесплатно

  • support: webmaster@btracker.club
» » Discovery: Хуже быть не могло / Worst-Case Scenario (2010) HDTVRip [H.264 / 720p-LQ] (Сезон 1, серии 12 из 12) торрент скачать бесплатно


    Discovery: Хуже быть не могло / Worst-Case Scenario (2010) HDTVRip [H.264 / 720p-LQ] (Сезон 1, серии 12 из 12) торрент скачать бесплатно

    Дата: 25-05-2019, 05:00 | .torrent скачали: 0

    Discovery: Хуже быть не могло / Worst-Case Scenario (2010) HDTVRip [H.264 / 720p-LQ] (Сезон 1, серии 12 из 12)Производство: США, Pilgrim Films Television for Discovery Communications LLC
    Жанр: Документальный, выживание, экстрим
    Участники: Беар Гриллс, Нелл Тир, Тед Олдерман

    Описание

    Серия передач по одноименной книге, в которой ведущий передачи Выжить любой ценой применяет свои навыки в ситуациях, возможных в реальной городской жизни: аварии, пожары, нападения собак и т. д.

    Релиз от: рип san007
    Продолжительность: 12 x ~00: 22: 00
    Качество видео: HDTVRip
    Перевод: Одноголосый закадровый, профессиональный
    Субтитры: отсутствуют
    Видео: AVC/H.264, 1280x720, ~3840 Kbps
    Аудио#1: AC3, 6 ch, 384 Kbps | Русский
    Аудио#2: AC3, 6 ch, 384 Kbps | Английский

    Общее
    Уникальный идентификатор : 205312805479705269869651002204995864490 (0x9A75CED958D338DE92485DCA465A47AA)
    Полное имя : F: КИНОWorst-Case Scenario S01Worst-Case Scenario S01E06 Trapped in Extreme Cold (720p).mkv
    Формат : Matroska
    Версия формата : Version 4
    Размер файла : 726 Мбайт
    Продолжительность : 21 м. 34 с.
    Общий поток : 4705 Кбит/сек
    Название фильма : Worst-Case Scenario S01E06 Trapped in Extreme Cold
    Дата кодирования : UTC 2015-02-25 04: 17: 47
    Программа кодирования : mkvmerge v7.5.0 (\'Glass Culture\') 64bit built on Jan 4 2015 16: 48: 44
    Библиотека кодирования : libebml v1.3.1 + libmatroska v1.4.2
    Видео
    Идентификатор : 1
    Формат : AVC
    Формат/Информация : Advanced Video Codec
    Профиль формата : High@L4.1
    Настройки формата : CABAC/8 Ref Frames
    Параметр CABAC формата : Да
    Параметр RefFrames формата : 8 кадров
    Идентификатор кодека : V_MPEG4/ISO/AVC
    Продолжительность : 21 м. 34 с.
    Битрейт : 3935 Кбит/сек
    Ширина : 1280 пикселей
    Высота : 720 пикселей
    Соотношение сторон : 16: 9
    Режим частоты кадров : Постоянный
    Частота кадров : 25, 000 кадров/сек
    Цветовое пространство : YUV
    Субдискретизация насыщенности : 4: 2: 0
    Битовая глубина : 8 бит
    Тип развёртки : Прогрессивная
    Бит/(Пиксели*Кадры) : 0.171
    Размер потока : 593 Мбайт (82%)
    Библиотека кодирования : x264 core 142 r2479kMod dd79a61
    Настройки программы : cabac=1/ref=8/deblock=1: -1: -1/analyse=0x3: 0x133/me=umh/subme=9/psy=1/fade_compensate=0.00/psy_rd=1.00: 0.10/mixed_ref=1/me_range=24/chroma_me=1/trellis=2/8x8dct=1/cqm=0/deadzone=21, 11/fast_pskip=1/chroma_qp_offset=-3/threads=6/lookahead_threads=1/sliced_threads=0/nr=0/decimate=1/interlaced=0/bluray_compat=0/constrained_intra=0/fgo=0/bframes=8/b_pyramid=2/b_adapt=2/b_bias=0/direct=3/weightb=1/open_gop=0/weightp=2/keyint=250/keyint_min=25/scenecut=40/intra_refresh=0/rc_lookahead=60/rc=2pass/mbtree=1/bitrate=3935/ratetol=1.0/qcomp=0.60/qpmin=0/qpmax=69/qpstep=4/cplxblur=20.0/qblur=0.5/ip_ratio=1.40/aq=1: 1.00
    Default : Да
    Forced : Нет
    Аудио #1
    Идентификатор : 2
    Формат : AC-3
    Формат/Информация : Audio Coding 3
    Коммерческое название : Dolby Digital
    Идентификатор кодека : A_AC3
    Продолжительность : 21 м. 34 с.
    Вид битрейта : Постоянный
    Битрейт : 384 Кбит/сек
    Каналы : 6 каналов
    ChannelLayout : L R C LFE Ls Rs
    Частота : 48, 0 КГц
    Частота кадров : 31, 250 кадров/сек (1536 SPF)
    Битовая глубина : 16 бит
    Метод сжатия : С потерями
    Размер потока : 59, 3 Мбайт (8%)
    Заголовок : Russian
    Язык : Russian
    ServiceKind/String : Complete Main
    Default : Да
    Forced : Нет
    Аудио #2
    Идентификатор : 3
    Формат : AC-3
    Формат/Информация : Audio Coding 3
    Коммерческое название : Dolby Digital
    Идентификатор кодека : A_AC3
    Продолжительность : 21 м. 34 с.
    Вид битрейта : Постоянный
    Битрейт : 384 Кбит/сек
    Каналы : 6 каналов
    ChannelLayout : L R C LFE Ls Rs
    Частота : 48, 0 КГц
    Частота кадров : 31, 250 кадров/сек (1536 SPF)
    Битовая глубина : 16 бит
    Метод сжатия : С потерями
    Размер потока : 59, 3 Мбайт (8%)
    Заголовок : English
    Язык : English
    ServiceKind/String : Complete Main
    Default : Нет
    Forced : Нет


    Discovery: Хуже быть не могло/Worst-Case Scenario (2010) HDTVRip [H.264/720p-LQ] (Сезон 1, серии 12 из 12)
    Рейтинг →
     (голосов: 1, оценка 3/5, голосовать можно 1 раз )

    Другие торренты по теме:

  • Discovery. Хуже не бывает / Worlds Worst (2014) HDTVRip [Серии 1-3] [Обновляемая] скачать через торрент бесплатно


    • Комментарии (0):

      Информация

      Информация

        Посетители, находящиеся в группе Гости, не могут оставлять комментарии в данной новости.

        ↓ Меню




        ↓ Опрос

        Вы добавили сайт в закладки?
        Да
        Нет


        Top 10 за месяц (Передачи)