.
Авторизация | Регистрация

Торрент скачать бесплатно

  • support: webmaster@btracker.club
» » Comedy Баттл (2019.04.26) WEB-DLRip (сезон 9, выпуск 15) торрент скачать бесплатно


    Comedy Баттл (2019.04.26) WEB-DLRip (сезон 9, выпуск 15) торрент скачать бесплатно

    Дата: 27-04-2019, 05:00 | .torrent скачали: 62

    Comedy Баттл (2019.04.26) WEB-DLRip (сезон 9, выпуск 15)Производство: Россия | Comedy Club Production, Телеканал ТНТ
    Жанр: Юмор
    Ведущий: Павел Воля
    Режиссер: Кирилл Пухонто

    Описание

    У смешного не бывает последних сезон любимого сериалаов и как вы дорогие зрители видите битва за самые смешные пародии и шутки снова с нами. За годы существования проект Comedy Баттл не раз менял своё название и концепцию, но принцип отбора лучших юмористов так и остался в приоритете, а от неудачников избавляются давним способом – сцена сама сбрасывает их вниз. Комедийное шоу канала ТНТ, в котором может принять участие каждый, кто считает себя смешным. Победитель сезон любимого сериалаа получит 3 миллиона рублей и возможность заключить контракт с любой юмористической программой на ТНТ.

    Возраст: 16+ (зрителям, достигшим 16 лет)
    Продолжительность: 00: 45: 06
    Качество видео: WEB-DLRip
    Видео: Xvid, 720x400 (16: 9), ~1700 Kbps
    Аудио: AC3, 2 ch, 48.0 kHz, 192 Kbps

    General
    Complete name : G: Comedy_Баттл_s09_e15.avi
    Format : AVI
    Format/Info : Audio Video Interleave
    File size : 614 MiB
    Duration : 45 min 6 s
    Overall bit rate : 1 903 kb/s
    Writing application : Lavf54.63.104
    Video
    ID : 0
    Format : xvid
    Codec ID : xvid
    Duration : 45 min 6 s
    Bit rate : 1 700 kb/s
    Width : 720 pixels
    Height : 400 pixels
    Display aspect ratio : 16: 9
    Frame rate : 25.000 FPS
    Scan type : Progressive
    Bits/(Pixel*Frame) : 0.236
    Stream size : 548 MiB (89%)
    Audio
    ID : 1
    Format : AC-3
    Format/Info : Audio Coding 3
    Commercial name : Dolby Digital
    Codec ID : 2000
    Duration : 45 min 6 s
    Bit rate mode : Constant
    Bit rate : 192 kb/s
    Channel(s) : 2 channels
    Channel layout : L R
    Sampling rate : 48.0 kHz
    Frame rate : 31.250 FPS (1536 SPF)
    Bit depth : 16 bits
    Compression mode : Lossy
    Stream size : 61.9 MiB (10%)
    Alignment : Aligned on interleaves
    Interleave, duration : 32 ms (0.80 video frame)
    Service kind : Complete Main

    Скриншоты для ознакомления



    Все одноименные релизы в Клубе
    Время раздачи: 24/7 (круглосуточно) (до появления первых 3-5 скачавших)


    Comedy Баттл (2019.04.26) WEB-DLRip (сезон 9, выпуск 15)
    Рейтинг →
     (голосов: 1, оценка 3/5, голосовать можно 1 раз )

    Другие торренты по теме:

  • Comedy Баттл. Суперсезон. Этап 2. Выпуск №4 / Комеди Клаб / Comedy Club (2014.09.26) WEB-DL [H.264 / 720p] [hand made 50fps]
  • Comedy Баттл. Суперсезон. Этап 2. Выпуск №4 / Комеди Клаб / Comedy Club (2014.09.26) SATRip
  • Comedy Баттл. Суперсезон. Этап 2. Выпуск №4 / Комеди Клаб / Comedy Club (2014.09.26) WEBRip
  • Comedy Баттл. Суперсезон. Выпуск №27 / Комеди Клаб / Comedy Club (2014.10.10) WEB-DLRip [H.264 / 720p-LQ] скачать через торрент бесплатно
  • Comedy Баттл. Суперсезон. Выпуск №27 / Комеди Клаб / Comedy Club (2014.10.10) SATRip скачать через торрент бесплатно
  • Comedy Баттл. Суперсезон. Выпуск №27 / Комеди Клаб / Comedy Club (2014.10.10) WEB-DL [H.264 / 720p] [hand made 50fps] скачать через торрент бесплатно
  • Comedy Баттл. Суперсезон. Выпуск №27 / Комеди Клаб / Comedy Club (2014.10.10) WEBRip скачать через торрент бесплатно
  • Comedy Баттл. Суперсезон. Выпуск №28 / Комеди Клаб / Comedy Club (2014.10.17) WEB-DL [H.264 / 720p] [hand made 50fps] скачать через торрент бесплатно


    • Комментарии (0):

      Информация

      Информация

        Посетители, находящиеся в группе Гости, не могут оставлять комментарии в данной новости.

        ↓ Меню




        ↓ Опрос

        Вы добавили сайт в закладки?
        Да
        Нет


        Top 10 за месяц (Передачи)