.
Авторизация | Регистрация

Торрент скачать бесплатно

  • support: webmaster@btracker.club
» » Наша планета / Our Planet (2019) WEB-DLRip (Сезон 1, серии 1-8 из 8) торрент скачать бесплатно


    Наша планета / Our Planet (2019) WEB-DLRip (Сезон 1, серии 1-8 из 8) торрент скачать бесплатно

    Дата: 9-04-2019, 05:00 | .torrent скачали: 47

    Наша планета / Our Planet (2019) WEB-DLRip (Сезон 1, серии 1-8 из 8)Производство: США, Silverback Films, Netflix
    Жанр: Документальный, природа, флора, фауна
    Режиссер: Адам Чапман
    Участники: Дэвид Аттенборо

    Описание

    Сериал от создателей Планеты Земля отправляет зрителей в беспрецедентное путешествие по самым ценным природным местам обитания в мире. Испытайте естественную красоту нашей планеты и изучите, как изменение климата влияет на все живые существа в этом амбициозном документальном фильме впечатляющего масштаба.
    Съёмки сериала проходили в 50 странах мира на протяжении четырёх лет, съёмочная бригада составила более 600 человек.

    Дата мировой премьеры: 5 апреля 2019, ...
    Релиз от: NNMClub
    Продолжительность: 8 x ~00: 50: 00
    Качество видео: WEB-DLRip
    Перевод: Одноголосый закадровый, профессиональный (АРК-ТВ)
    Субтитры: Русские (Full), Английские (SDH) - Отдельными файлами
    Видео: XviD, 720x400, ~1 700 Kbps, 23.976 fps
    Аудио#1: AC3, 6 ch, 384 Kbps - Русский (Игорь Тарадайкин)
    Аудио#2: AC3, 6 ch, 384 Kbps - Английский (Оригинал)
    General
    Complete name : Our.Planet.S01E05.From.Deserts.to.Grasslands.WEB-DLRip.RU.EN.NNMClub.avi
    Format : AVI
    Format/Info : Audio Video Interleave
    File size : 911 MiB
    Duration : 51 min 15 s
    Overall bit rate : 2 486 kb/s
    Writing application : VirtualDubModRus 1.5.10.2 (build 2542/release)
    Writing library : VirtualDubMod build 2542/release
    Video
    ID : 0
    Format : MPEG-4 Visual
    Format profile : Advanced Simple@L5
    Format settings : BVOP2
    Format settings, BVOP : 2
    Format settings, QPel : No
    Format settings, GMC : No warppoints
    Format settings, Matrix : Default (MPEG)
    Codec ID : XVID
    Codec ID/Hint : XviD
    Duration : 51 min 15 s
    Bit rate : 1 704 kb/s
    Width : 720 pixels
    Height : 400 pixels
    Display aspect ratio : 16: 9
    Frame rate : 23.976 (24000/1001) FPS
    Color space : YUV
    Chroma subsampling : 4: 2: 0
    Bit depth : 8 bits
    Scan type : Progressive
    Compression mode : Lossy
    Bits/(Pixel*Frame) : 0.247
    Stream size : 625 MiB (69%)
    Writing library : XviD 67
    Audio #1
    ID : 1
    Format : AC-3
    Format/Info : Audio Coding 3
    Commercial name : Dolby Digital
    Codec ID : 2000
    Duration : 51 min 15 s
    Bit rate mode : Constant
    Bit rate : 384 kb/s
    Channel(s) : 6 channels
    Channel layout : L R C LFE Ls Rs
    Sampling rate : 48.0 kHz
    Frame rate : 31.250 FPS (1536 SPF)
    Bit depth : 16 bits
    Compression mode : Lossy
    Stream size : 141 MiB (15%)
    Alignment : Split accross interleaves
    Interleave, duration : 42 ms (1.00 video frame)
    Interleave, preload duratio : 500 ms
    Service kind : Complete Main
    Audio #2
    ID : 2
    Format : AC-3
    Format/Info : Audio Coding 3
    Commercial name : Dolby Digital
    Codec ID : 2000
    Duration : 51 min 15 s
    Bit rate mode : Constant
    Bit rate : 384 kb/s
    Channel(s) : 6 channels
    Channel layout : L R C LFE Ls Rs
    Sampling rate : 48.0 kHz
    Frame rate : 31.250 FPS (1536 SPF)
    Bit depth : 16 bits
    Compression mode : Lossy
    Stream size : 141 MiB (15%)
    Alignment : Split accross interleaves
    Interleave, duration : 42 ms (1.00 video frame)
    Interleave, preload duratio : 500 ms
    Service kind : Complete Main
    General
    Complete name : Our.Planet.S01E05.From.Deserts.to.Grasslands.WEB-DLRip.RU.EN.NNMClub-EN.srt
    Format : SubRip
    File size : 24.8 KiB
    Text
    Format : SubRip
    Compression mode : Lossless
    General
    Complete name : Our.Planet.S01E05.From.Deserts.to.Grasslands.WEB-DLRip.RU.EN.NNMClub-RU.srt
    Format : SubRip
    File size : 33.4 KiB
    Text
    Format : SubRip
    Compression mode : Lossless


    Наша планета/Our Planet (2019) WEB-DLRip (Сезон 1, серии 1-8 из 8)
    Рейтинг →
     (голосов: 1, оценка 5/5, голосовать можно 1 раз )

    Другие торренты по теме:

  • Эдвард Уилсон | Будущее Земли. Наша планета в борьбе за жизнь (2017) [FB2]
  • Наша планета / Our Planet (2019) WEB-DL [H.265 / 1080p] [HDR, 10-bit] (Сезон 1, серии 1-8 из 8)
  • Наша планета / Our Planet (2019) WEB-DL [H.264 / 1080p] (Сезон 1, серии 1-8 из 8)
  • Наша планета / Our Planet (2019) WEBRip [H.265 / 2160p] [HDR, 10-bit] (сезон 1, серии 1-8 из 8)
  • Океаны: Наша Голубая Планета / Oceans: Our Blue Planet (2018) UHD BDRemux [H.265 / 2160p] [4K, HDR, 10-bit] [EN / EN Sub]
  • BBC: Океаны: Наша Голубая Планета / Oceans: Our Blue Planet (2018) BDRip [H.264 / 1080p-LQ] [EN / EN Sub] [PR]
  • BBC. Океаны: Наша Голубая Планета / Oceans: Our Blue Planet (2018) BDRip [H.264 / 1080p] [EN / EN Sub]


    • Комментарии (0):

      Информация

      Информация

        Посетители, находящиеся в группе Гости, не могут оставлять комментарии в данной новости.

        ↓ Меню




        ↓ Опрос

        Вы добавили сайт в закладки?
        Да
        Нет


        Top 10 за месяц (Передачи)