.
Авторизация | Регистрация
Хочешь лучшие торренты? Добавь свой email!
Добавить

Торрент скачать бесплатно

  • support: webmaster@btracker.club
» » Биатлон. Чемпионат Европы 2019. Минск-Раубичи (Беларусь). Мужчины. Гонка преследования 12,5 км (2019) WEB-DL [H.264 / 720p-LQ] торрент скачать бесплатно


    Биатлон. Чемпионат Европы 2019. Минск-Раубичи (Беларусь). Мужчины. Гонка преследования 12,5 км (2019) WEB-DL [H.264 / 720p-LQ] торрент скачать бесплатно

    Опубликовал: fregat | Дата: 1-03-2019, 05:00 | .torrent скачали: 0

    Биатлон. Чемпионат Европы 2019. Минск-Раубичи (Беларусь). Мужчины. Гонка преследования 12,5 км (2019) WEB-DL [H.264 / 720p-LQ]Телекомпания: Матч ТВ HD
    Жанр: Спорт
    Комментатор: Леонид Народицкий

    Описание
    24 февраля 2019 года, воскресенье. 11: 00 МСК
    Открытый Чемпионат Европы по биатлону 2019. Раубичи (Беларусь)
    Мужчины. Гонка преследования 12, 5 км
    Стадион: РЦОП по ЗВС Раубичи (Минск-Раубичи, Беларусь)
    Продолжительность: 00: 49: 12
    Качество видео: WEB-DL
    Язык озвучки: Русский
    Субтитры: отсутствуют
    Видео: AVC/H.264, 1280x720 (16: 9), ~3357 Kbps
    Аудио: AAC, 2 ch, 128 Kbps

    Общее
    Уникальный идентификатор : 27942023320703076206521580400231800234 (0x1505701CF7B627B0606CD421F6975DAA)
    Полное имя : F: SPORTБиатлонIBU Open European Championships 2019. Minsk-Raubichi (BLR)IBU OECh 2019. Raubichi (BLR). Men 12.5 km Pursuit_24.02.2019.mkv
    Формат : Matroska
    Версия формата : Version 4
    Размер файла : 1, 20 Гбайт
    Продолжительность : 49 м. 12 с.
    Общий поток : 3487 Кбит/сек
    Дата кодирования : UTC 2019-02-27 13: 17: 13
    Программа кодирования : mkvmerge v31.0.0 (\'Dolores In A Shoestand\') 64-bit
    Библиотека кодирования : libebml v1.3.6 + libmatroska v1.4.9
    Видео
    Идентификатор : 1
    Формат : AVC
    Формат/Информация : Advanced Video Codec
    Профиль формата : Baseline@L3.1
    Настройки формата : 3 Ref Frames
    Параметр CABAC формата : Нет
    Параметр RefFrames формата : 3 кадра
    Идентификатор кодека : V_MPEG4/ISO/AVC
    Продолжительность : 49 м. 12 с.
    Битрейт : 3357 Кбит/сек
    Ширина : 1280 пикселей
    Высота : 720 пикселей
    Соотношение сторон : 16: 9
    Режим частоты кадров : Постоянный
    Частота кадров : 25, 000 кадров/сек
    Цветовое пространство : YUV
    Субдискретизация насыщенности : 4: 2: 0
    Битовая глубина : 8 бит
    Тип развёртки : Прогрессивная
    Бит/(Пиксели*Кадры) : 0.146
    Размер потока : 1, 15 Гбайт (96%)
    Default : Да
    Forced : Нет
    Аудио
    Идентификатор : 2
    Формат : AAC LC
    Формат/Информация : Advanced Audio Codec Low Complexity
    Идентификатор кодека : A_AAC-2
    Продолжительность : 49 м. 12 с.
    Битрейт : 128 Кбит/сек
    Каналы : 2 канала
    Channel layout : L R
    Частота : 44, 1 КГц
    Частота кадров : 43, 066 кадра/сек (1024 SPF)
    Метод сжатия : С потерями
    Размер потока : 45, 0 Мбайт (4%)
    Язык : Russian
    Default : Да
    Forced : Нет

    Скриншоты для ознакомления



    Все одноименные релизы в Клубе
    Время раздачи: 24/7 (около 1 месяца)


    Биатлон. Чемпионат Европы 2019. Минск-Раубичи (Беларусь). Мужчины. Гонка преследования 12,5 км (2019) WEB-DL [H.264/720p-LQ]
    Рейтинг →
     (голосов: 1, оценка 4/5, голосовать можно 1 раз )

    Другие торренты по теме:

  • Биатлон. Чемпионат мира среди юниоров - 2016. Чейле Градистей (Румыния). Спринт (30.01.2016) HDTVRip [H.264 / 720p-LQ]
  • Биатлон. Чемпионат мира среди юниоров - 2016. Чейле Градистей (Румыния). Гонка преследования (31.01.2016) HDTVRip [H.264 / 720p-LQ]
  • Биатлон. Чемпионат Мира 2016. Осло-Хольменколлен (Норвегия). Смешанная эстафета 2x6км-2x7.5км (03.03.2016) HDTVRip [H.264 / 720p-LQ]
  • Биатлон. Чемпионат Мира 2016. Осло-Хольменколлен (Норвегия). Церемония открытия (02.03.2016) WEB-DLRip [H.264 / 720p-LQ] [EN]
  • Биатлон. Чемпионат Мира 2016. Осло-Хольменколлен (Норвегия). Спринт 10 км Мужчины (05.03.2016) HDTVRip [H.264 / 720p-LQ]
  • Биатлон. Чемпионат Мира 2016. Осло-Хольменколлен (Норвегия). Спринт 7,5 км Женщины (05.03.2016) HDTVRip [H.264 / 720p-LQ]
  • Биатлон. Чемпионат Мира 2016. Осло-Хольменколлен (Норвегия). Гонка преследования 12.5 км Мужчины (06.03.2016) HDTVRip [H.264 / 720p-LQ]
  • Биатлон. Чемпионат Мира 2016. Осло-Хольменколлен (Норвегия). Гонка преследования 10 км Женщины (06.03.2016) HDTVRip [H.264 / 720p-LQ]


    • Комментарии (0):

      Информация

      Информация

        Посетители, находящиеся в группе Гости, не могут оставлять комментарии в данной новости.

        ↓ Меню




        ↓ Опрос

        Вы добавили сайт в закладки?
        Да
        Нет


        Top 10 за месяц (Передачи)