.
Авторизация | Регистрация

Торрент скачать бесплатно

  • support: webmaster@btracker.club
» » Чемпионат мира по лыжным видам спорта 2019. Зеефельд (Австрия). Лыжные гонки. Мужчины. Скиатлон 30 км (2019) HDTVRip [H.264 / 720p-LQ] [hand made 50fps] торрент скачать бесплатно


    Чемпионат мира по лыжным видам спорта 2019. Зеефельд (Австрия). Лыжные гонки. Мужчины. Скиатлон 30 км (2019) HDTVRip [H.264 / 720p-LQ] [hand made 50fps] торрент скачать бесплатно

    Дата: 1-03-2019, 05:00 | .torrent скачали: 0

    Чемпионат мира по лыжным видам спорта 2019. Зеефельд (Австрия). Лыжные гонки. Мужчины. Скиатлон 30 км (2019) HDTVRip [H.264 / 720p-LQ] [hand made 50fps]Телекомпания: Eurosport 1 HD
    Жанр: Спорт
    Комментатор: Сергей Курдюков

    Описание
    23 февраля 2019 года, суббота. 14: 30 МСК
    Чемпионат мира по лыжным видам спорта 2019. Зеефельд (Австрия)
    Лыжные гонки. Мужчины.
    Скиатлон 30 км. (15 км. Классический стиль + 15 км. Свободный стиль)
    Стадион: Тони Зелос (Зеефельд-ин-Тироль, Австрия)
    Релиз от: Анри
    Продолжительность: 01: 39: 11
    Качество видео: HDTVRip
    Язык озвучки: Русский, Английский
    Субтитры: отсутствуют
    Видео: AVC/H.264, 1280x720 (16: 9), ~4052 Kbps, 50 fps
    Аудио #1: AC3, 2 ch, 48 kHz, 128 Kbps | Русский
    Аудио #2: AC3, 2 ch, 48 kHz, 128 Kbps | Английский

    Общее
    Уникальный идентификатор : 18382732181769216637361642652391941513 (0xDD462ABFD521D9138259ECA8B47A589)
    Полное имя : F: SPORTFIS Nordic World Ski Championships 2019. Seefeld (AUS)Cross-countryFIS Nordic WSCh 2019.Seefeld(AUS).Cross-country. Mens 30 km Skiathlon 23.02.2019, Eurosport.mkv
    Формат : Matroska
    Версия формата : Version 2
    Размер файла : 3, 05 Гбайт
    Продолжительность : 1 ч. 39 м.
    Общий поток : 4395 Кбит/сек
    Программа кодирования : Lavf54.63.104
    Библиотека кодирования : Lavf54.63.104
    Видео
    Идентификатор : 1
    Формат : AVC
    Формат/Информация : Advanced Video Codec
    Профиль формата : High@L4.1
    Настройки формата : CABAC/4 Ref Frames
    Параметр CABAC формата : Да
    Параметр RefFrames формата : 4 кадра
    Параметр GOP формата : M=2, N=15
    Идентификатор кодека : V_MPEG4/ISO/AVC
    Продолжительность : 1 ч. 39 м.
    Битрейт : 4052 Кбит/сек
    Ширина : 1280 пикселей
    Высота : 720 пикселей
    Соотношение сторон : 16: 9
    Режим частоты кадров : Постоянный
    Частота кадров : 50, 000 кадров/сек
    Цветовое пространство : YUV
    Субдискретизация насыщенности : 4: 2: 0
    Битовая глубина : 8 бит
    Тип развёртки : Прогрессивная
    Бит/(Пиксели*Кадры) : 0.088
    Размер потока : 2, 81 Гбайт (92%)
    Default : Нет
    Forced : Нет
    Аудио #1
    Идентификатор : 2
    Формат : AC-3
    Формат/Информация : Audio Coding 3
    Коммерческое название : Dolby Digital
    Идентификатор кодека : A_AC3
    Продолжительность : 1 ч. 39 м.
    Вид битрейта : Постоянный
    Битрейт : 128 Кбит/сек
    Каналы : 2 канала
    Channel layout : L R
    Частота : 48, 0 КГц
    Частота кадров : 31, 250 кадров/сек (1536 SPF)
    Битовая глубина : 16 бит
    Метод сжатия : С потерями
    Размер потока : 90, 8 Мбайт (3%)
    Язык : Russian
    ServiceKind/String : Complete Main
    Default : Да
    Forced : Нет
    Аудио #2
    Идентификатор : 3
    Формат : AC-3
    Формат/Информация : Audio Coding 3
    Коммерческое название : Dolby Digital
    Идентификатор кодека : A_AC3
    Продолжительность : 1 ч. 39 м.
    Вид битрейта : Постоянный
    Битрейт : 128 Кбит/сек
    Каналы : 2 канала
    Channel layout : L R
    Частота : 48, 0 КГц
    Частота кадров : 31, 250 кадров/сек (1536 SPF)
    Битовая глубина : 16 бит
    Метод сжатия : С потерями
    Размер потока : 90, 8 Мбайт (3%)
    Язык : English
    ServiceKind/String : Complete Main
    Default : Нет
    Forced : Нет

    Скриншоты для ознакомления



    Все одноименные релизы в Клубе
    Время раздачи: 24/7 (около 1 месяца)


    Чемпионат мира по лыжным видам спорта 2019. Зеефельд (Австрия). Лыжные гонки. Мужчины. Скиатлон 30 км (2019) HDTVRip [H.264/720p-LQ] [hand made 50fps]
    Рейтинг →
     (голосов: 1, оценка 5/5, голосовать можно 1 раз )

    Другие торренты по теме:

  • Чемпионат мира по футболу 2018 Россия | Кубок мира v1.17 AdFree [Ru]
  • Хоккей. Чемпионат Мира 2019. Группа B. Швейцария — Россия (19.05.2019) HDTV [H.264 / 1080i-LQ]
  • Хоккей. Чемпионат Мира 2019. Группа B. Швеция — Швейцария (18.05.2019) HDTVRip [H.264 / 720p-LQ] [hand made 50fps]
  • Хоккей. Чемпионат Мира 2019. Группа A. Великобритания — Словакия (18.05.2019) HDTVRip [H.264 / 720p-LQ] [hand made 50fps]
  • Хоккей. Чемпионат Мира 2019. Группа B. Италия — Норвегия (18.05.2019) HDTVRip [H.264 / 720p-LQ]
  • Хоккей. Чемпионат Мира 2019. Группа A. Канада — Германия (18.05.2019) HDTVRip [H.264 / 720p-LQ] [hand made 50fps]
  • Хоккей. Чемпионат Мира 2019. Группа B. Латвия — Россия (18.05.2019) HDTVRip [H.264 / 720p-LQ] [hand made 50fps]
  • Хоккей. Чемпионат Мира 2019. Группа A. Дания — США (18.05.2019) WEB-DL [H.264 / 720p-LQ]


    • Комментарии (0):

      Информация

      Информация

        Посетители, находящиеся в группе Гости, не могут оставлять комментарии в данной новости.

        ↓ Меню




        ↓ Опрос

        Вы добавили сайт в закладки?
        Да
        Нет


        Top 10 за месяц (Передачи)