.
Авторизация | Регистрация

Торрент скачать бесплатно

  • support: webmaster@btracker.club
» » Чемпионат мира по лыжным видам спорта 2019. Инсбрук (Австрия). Прыжки с трамплина. Мужчины. Трамплин К-130 (2019) IPTV [H.264 / 1080p-LQ] торрент скачать бесплатно


    Чемпионат мира по лыжным видам спорта 2019. Инсбрук (Австрия). Прыжки с трамплина. Мужчины. Трамплин К-130 (2019) IPTV [H.264 / 1080p-LQ] торрент скачать бесплатно

    Дата: 1-03-2019, 05:00 | .torrent скачали: 0

    Чемпионат мира по лыжным видам спорта 2019. Инсбрук (Австрия). Прыжки с трамплина. Мужчины. Трамплин К-130 (2019) IPTV [H.264 / 1080p-LQ]Телекомпания: Eurosport 1 HD
    Жанр: Спорт
    Комментатор: Сергей Курдюков

    Описание
    23 февраля 2019 года, суббота. 16: 30 МСК
    Чемпионат мира по лыжным видам спорта 2019. Инсбрук (Австрия)
    Прыжки с трамплина:
    Мужчины. Большой трамплин К-130
    Стадион: Бергизель (Инсбрук, Австрия)
    Релиз от: Nitta4Ka
    Продолжительность: 02: 38: 00
    Качество видео: IPTV
    Язык озвучки: Русский
    Субтитры: отсутствуют
    Видео: AVC/H.264, 1920x1080 (16: 9), ~4068 Kbps
    Аудио: AAC, 2 ch, 48 kHz, 192 Kbps

    Общее
    Уникальный идентификатор : 89053577274361320281476979857312963835 (0x42FF18594F2494E3A506F414CDEBDCFB)
    Полное имя : F: SPORTFIS Nordic World Ski Championships 2019. Seefeld (AUS)Ski Jumping2019.02.23. Ski Jumping WSC. Innsbruck (AUT). HS 130. Individual.mkv
    Формат : Matroska
    Версия формата : Version 4
    Размер файла : 4, 70 Гбайт
    Продолжительность : 2 ч. 38 м.
    Режим общего битрейта : Переменный
    Общий поток : 4260 Кбит/сек
    Дата кодирования : UTC 2019-02-23 16: 11: 06
    Программа кодирования : mkvmerge v29.0.0 (\'Like It Or Not\') 64-bit
    Библиотека кодирования : libebml v1.3.6 + libmatroska v1.4.9
    Видео
    Идентификатор : 1
    Формат : AVC
    Формат/Информация : Advanced Video Codec
    Профиль формата : High@L4
    Настройки формата : CABAC/4 Ref Frames
    Параметр CABAC формата : Да
    Параметр RefFrames формата : 4 кадра
    Идентификатор кодека : V_MPEG4/ISO/AVC
    Продолжительность : 2 ч. 38 м.
    Вид битрейта : Переменный
    Битрейт : 4068 Кбит/сек
    Максимальный битрейт : 4500 Кбит/сек
    Ширина : 1920 пикселей
    Высота : 1080 пикселей
    Соотношение сторон : 16: 9
    Режим частоты кадров : Постоянный
    Частота кадров : 25, 000 кадров/сек
    Цветовое пространство : YUV
    Субдискретизация насыщенности : 4: 2: 0
    Битовая глубина : 8 бит
    Тип развёртки : Прогрессивная
    Бит/(Пиксели*Кадры) : 0.078
    Размер потока : 4, 49 Гбайт (95%)
    Default : Да
    Forced : Нет
    Аудио
    Идентификатор : 2
    Формат : AAC LC
    Формат/Информация : Advanced Audio Codec Low Complexity
    Идентификатор кодека : A_AAC-2
    Продолжительность : 2 ч. 38 м.
    Битрейт : 192 Кбит/сек
    Каналы : 2 канала
    Channel layout : L R
    Частота : 48, 0 КГц
    Частота кадров : 46, 875 кадров/сек (1024 SPF)
    Метод сжатия : С потерями
    Размер потока : 214 Мбайт (4%)
    Язык : Russian
    Default : Да
    Forced : Нет

    Скриншоты для ознакомления



    Все одноименные релизы в Клубе
    Время раздачи: 24/7 (около 1 месяца)


    Чемпионат мира по лыжным видам спорта 2019. Инсбрук (Австрия). Прыжки с трамплина. Мужчины. Трамплин К-130 (2019) IPTV [H.264/1080p-LQ]
    Рейтинг →
     (голосов: 1, оценка 3/5, голосовать можно 1 раз )

    Другие торренты по теме:

  • Хоккей. Чемпионат Мира 2019. Группа B. Швейцария — Россия (19.05.2019) HDTV [H.264 / 1080i-LQ]
  • Хоккей. Чемпионат Мира 2019. Группа B. Швеция — Швейцария (18.05.2019) HDTVRip [H.264 / 720p-LQ] [hand made 50fps]
  • Хоккей. Чемпионат Мира 2019. Группа A. Великобритания — Словакия (18.05.2019) HDTVRip [H.264 / 720p-LQ] [hand made 50fps]
  • Хоккей. Чемпионат Мира 2019. Группа B. Италия — Норвегия (18.05.2019) HDTVRip [H.264 / 720p-LQ]
  • Хоккей. Чемпионат Мира 2019. Группа A. Канада — Германия (18.05.2019) HDTVRip [H.264 / 720p-LQ] [hand made 50fps]
  • Хоккей. Чемпионат Мира 2019. Группа B. Латвия — Россия (18.05.2019) HDTVRip [H.264 / 720p-LQ] [hand made 50fps]
  • Хоккей. Чемпионат Мира 2019. Группа A. Дания — США (18.05.2019) WEB-DL [H.264 / 720p-LQ]
  • Хоккей. Чемпионат Мира 2019. Предварительный раунд. Группа B. Швейцария — Россия (19.05.2019) HDTVRip [H.264 / 720p-LQ] [hand made 50fps]


    • Комментарии (0):

      Информация

      Информация

        Посетители, находящиеся в группе Гости, не могут оставлять комментарии в данной новости.

        ↓ Меню




        ↓ Опрос

        Вы добавили сайт в закладки?
        Да
        Нет


        Top 10 за месяц (Передачи)