.
Авторизация | Регистрация

Торрент скачать бесплатно

  • support: webmaster@btracker.club
» » Океаны: Наша Голубая Планета / Oceans: Our Blue Planet (2018) UHD BDRemux [H.265 / 2160p] [4K, HDR, 10-bit] [EN / EN Sub] торрент скачать бесплатно


    Океаны: Наша Голубая Планета / Oceans: Our Blue Planet (2018) UHD BDRemux [H.265 / 2160p] [4K, HDR, 10-bit] [EN / EN Sub] торрент скачать бесплатно

    Дата: 1-03-2019, 05:00 | .torrent скачали: 3

    Океаны: Наша Голубая Планета / Oceans: Our Blue Planet (2018) UHD BDRemux [H.265 / 2160p] [4K, HDR, 10-bit] [EN / EN Sub]Производство: США, Великобритания, BBC Earth, OceanX Media, Wounded Buffalo
    Жанр: Документальный, природа, флора, фауна, видовой
    Режиссер: Марк Браунлоу, Рэйчел Батлер
    Участники: Кейт Уинслет

    Описание

    Отправляйтесь в глобальную Одиссею, чтобы открыть для себя самую большую и наименее исследованную среду обитания на земле. Новая океаническая наука и техника позволила нам углубиться в неизведанное дальше, чем мы когда-либо считали возможным. Полностью погрузитесь в океан или насладитесь красочным миром коралловых рифов. Совершая это виртуальное путешествие, вы будьте поражены многочисленными оттенками нашей голубой планеты и тем, каких удивительных обитателей можно встретить в водах океанов.

    Релиз от: Мастер 5
    Продолжительность: 00: 41: 52
    Качество видео: BDRemux
    Перевод: Отсутствует
    Субтитры: Английские (три вида)
    Видео: HEVC/H.265, 3840x2160, ~55.3 Mbps, 10-bit
    Аудио: DTS-HD MA, 6 ch, 2205 Kbps | Английский

    Общее
    Уникальный идентификатор : 218185084267031826538463355021896830602 (0xA424EB314A3158F89A67AFF18C75CE8A)
    Полное имя : F: КИНОOceans.Our.Blue.Planet.2018.2160p.BDRemux.HEVC.x265.HDR.10bit.Master5.mkv
    Формат : Matroska
    Версия формата : Version 4
    Размер файла : 16, 8 Гбайт
    Продолжительность : 41 м. 52 с.
    Режим общего битрейта : Переменный
    Общий поток : 57, 5 Мбит/сек
    Название фильма : Oceans.Our.Blue.Planet.2018.2160p.BDRemux.HEVC.x265.HDR.10bit.Master5
    Дата кодирования : UTC 2019-02-28 08: 27: 31
    Программа кодирования : mkvmerge v7.9.0 (\'Birds\') 64bit
    Библиотека кодирования : libebml v1.3.1 + libmatroska v1.4.2
    Обложка : Yes
    Attachments : small_cover.jpg/small_cover_land.jpg/cover.jpg/cover_land.jpg
    Видео
    Идентификатор : 1
    Формат : HEVC
    Формат/Информация : High Efficiency Video Coding
    Коммерческое название : HDR10
    Профиль формата : Main10@L5.1@High
    Идентификатор кодека : V_MPEGH/ISO/HEVC
    Продолжительность : 41 м. 52 с.
    Битрейт : 55, 3 Мбит/сек
    Ширина : 3840 пикселей
    Высота : 2160 пикселей
    Соотношение сторон : 16: 9
    Режим частоты кадров : Постоянный
    Частота кадров : 23, 976 (24000/1001) кадра/сек
    Цветовое пространство : YUV
    Субдискретизация насыщенности : 4: 2: 0 (Type 2)
    Битовая глубина : 10 бит
    Бит/(Пиксели*Кадры) : 0.278
    Размер потока : 16, 2 Гбайт (96%)
    Заголовок : Oceans.Our.Blue.Planet.2018.2160p.BDRemux.HEVC.x265.HDR.10bit.Master5
    Default : Да
    Forced : Нет
    Цветовой диапазон : Limited
    Основные цвета : BT.2020
    Характеристики трансфера : PQ
    Коэффициенты матрицы : BT.2020 non-constant
    MasteringDisplay_ColorPrimaries : Display P3
    MasteringDisplay_Luminance : min: 0.0050 cd/m2, max: 4000 cd/m2
    MaxCLL : 1054 cd/m2
    MaxFALL : 403 cd/m2
    Аудио
    Идентификатор : 2
    Формат : DTS XLL
    Формат/Информация : Digital Theater Systems
    Коммерческое название : DTS-HD Master Audio
    Идентификатор кодека : A_DTS
    Продолжительность : 41 м. 52 с.
    Вид битрейта : Переменный
    Битрейт : 2205 Кбит/сек
    Каналы : 6 каналов
    Channel layout : C L R Ls Rs LFE
    Частота : 48, 0 КГц
    Частота кадров : 93, 750 кадра/сек (512 SPF)
    Битовая глубина : 16 бит
    Метод сжатия : Без потерь
    Размер потока : 661 Мбайт (4%)
    Язык : English
    Default : Да
    Forced : Нет
    Текст #1
    Идентификатор : 3
    Формат : UTF-8
    Идентификатор кодека : S_TEXT/UTF8
    Идентификатор кодека/Информация : UTF-8 Plain Text
    Продолжительность : 39 м. 55 с.
    Битрейт : 32 бит/сек
    ElementCount : 244
    Размер потока : 9, 39 Кбайт (0%)
    Заголовок : English-SRT
    Язык : English
    Default : Да
    Forced : Нет
    Текст #2
    Идентификатор : 4
    Формат : UTF-8
    Идентификатор кодека : S_TEXT/UTF8
    Идентификатор кодека/Информация : UTF-8 Plain Text
    Продолжительность : 40 м. 4 с.
    Битрейт : 33 бит/сек
    ElementCount : 269
    Размер потока : 9, 76 Кбайт (0%)
    Заголовок : English-SDH-SRT
    Язык : English
    Default : Нет
    Forced : Нет
    Текст #3
    Идентификатор : 5
    Формат : PGS
    Режим смешивания : zlib
    Идентификатор кодека : S_HDMV/PGS
    Идентификатор кодека/Информация : Picture based subtitle format used on BDs/HD-DVDs
    Продолжительность : 40 м. 4 с.
    Битрейт : 6622 бит/сек
    ElementCount : 540
    Размер потока : 1, 90 Мбайт (0%)
    Заголовок : English-PGS
    Язык : English
    Default : Нет
    Forced : Нет
    Меню
    00: 00: 00.000 : en: Chapter 01
    00: 10: 28.127 : en: Chapter 02
    00: 20: 03.702 : en: Chapter 03
    00: 30: 58.273 : en: Chapter 04
    00: 39: 31.202 : en: Chapter 05

    Скриншоты для ознакомления




    Все одноименные релизы в Клубе
    Время раздачи: с 18: 00 до 23: 00 (до появления первых 3-5 скачавших)


    Океаны: Наша Голубая Планета/Oceans: Our Blue Planet (2018) UHD BDRemux [H.265/2160p] [4K, HDR, 10-bit] [EN/EN Sub]
    Рейтинг →
     (голосов: 1, оценка 4/5, голосовать можно 1 раз )

    Другие торренты по теме:

  • BBC: Океаны: Наша Голубая Планета / Oceans: Our Blue Planet (2018) BDRip [H.264 / 1080p-LQ] [EN / EN Sub] [PR]
  • BBC. Океаны: Наша Голубая Планета / Oceans: Our Blue Planet (2018) BDRip [H.264 / 1080p] [EN / EN Sub]


    • Комментарии (0):

      Информация

      Информация

        Посетители, находящиеся в группе Гости, не могут оставлять комментарии в данной новости.

        ↓ Меню




        ↓ Опрос

        Вы добавили сайт в закладки?
        Да
        Нет


        Top 10 за месяц (Передачи)