.
Авторизация | Регистрация

Торрент скачать бесплатно

  • support: webmaster@btracker.club
» » Я - Пол Уокер / I Am Paul Walker (2018) WEB-DLRip торрент скачать бесплатно


    Я - Пол Уокер / I Am Paul Walker (2018) WEB-DLRip торрент скачать бесплатно

    Дата: 1-03-2019, 05:00 | .torrent скачали: 0

    Я - Пол Уокер / I Am Paul Walker (2018) WEB-DLRipПроизводство: США, Network Entertainment, Paramount Network
    Жанр: Документальный
    Режиссер: Адриан Байтенхайс
    Участники: Тайриз Гибсон, Коуди Уокер, Роб Коэн, Калеб Уокер, Эрик МакАртур, Окли Леман, Пол Уокер, Мэтт Любер, Эшли Уокер, Шерил Уокер

    Описание

    Это история о талантливом актере, который смог доказать, что любой человек может добиться высот, если будет в себя верить и приложит для этого усилия. Семья Пола не была богатой, поэтому случалось, что парню приходилось попрошайничать, а было время, когда он жил в гараже. Сниматься Пол начал в очень раннем возрасте, сперва это были рекламные ролики, потом комедии, а когда он получил одну из главных ролей в фильме о гонщиках, то стал настоящей звездой. Полу нравилось то, чем он занимался, но, к сожалению, своей любимой и дочери он не посвящал так много времени, как ему хотелось, так как в это самое время ему приходилось очень часто сниматься, не показываясь дома по полгода и больше.

    Продолжительность: 01: 01: 00
    Качество видео: WEB-DLRip
    Перевод: Двуголосый закадровый, профессиональный
    Субтитры: отсутствуют
    Видео: XviD, 704x400, ~2349 Kbps
    Аудио: AC3, 2 ch, 192 Kbps

    Общее
    Полное имя : F: КИНОI_Am_Paul_Walker_2018_WEB-DLRip_by_Dalemake.avi
    Формат : AVI
    Формат/Информация : Audio Video Interleave
    Размер файла : 1, 09 Гбайт
    Продолжительность : 1 ч. 1 м.
    Общий поток : 2550 Кбит/сек
    Программа кодирования : VirtualDubMod 1.5.10.3 |www.virtualdub-fr.org|| (build 2550/release)
    Библиотека кодирования : VirtualDubMod build 2550/release
    Видео
    Идентификатор : 0
    Формат : MPEG-4 Visual
    Профиль формата : Advanced Simple@L5
    Настройки формата : BVOP1/Custom Matrix
    Параметр BVOP формата : 1
    Параметр QPel формата : Нет
    Параметр GMC формата : Без точки перехода
    Параметр матрицы формата : Выборочная
    Идентификатор кодека : XVID
    Идентификатор кодека/Подсказка : XviD
    Продолжительность : 1 ч. 1 м.
    Битрейт : 2349 Кбит/сек
    Ширина : 704 пикселя
    Высота : 400 пикселей
    Соотношение сторон : 16: 9
    Частота кадров : 23, 976 (24000/1001) кадра/сек
    Цветовое пространство : YUV
    Субдискретизация насыщенности : 4: 2: 0
    Битовая глубина : 8 бит
    Тип развёртки : Прогрессивная
    Метод сжатия : С потерями
    Бит/(Пиксели*Кадры) : 0.348
    Размер потока : 1, 00 Гбайт (92%)
    Библиотека кодирования : XviD 67
    Аудио
    Идентификатор : 1
    Формат : AC-3
    Формат/Информация : Audio Coding 3
    Коммерческое название : Dolby Digital
    Идентификатор кодека : 2000
    Продолжительность : 1 ч. 1 м.
    Вид битрейта : Постоянный
    Битрейт : 192 Кбит/сек
    Каналы : 2 канала
    Channel layout : L R
    Частота : 48, 0 КГц
    Частота кадров : 31, 250 кадров/сек (1536 SPF)
    Битовая глубина : 16 бит
    Метод сжатия : С потерями
    Размер потока : 83, 8 Мбайт (8%)
    Выравнивание : Разделение по промежуткам
    Продолжительность промежутка : 42 мс. (1, 00 видеокадр)
    Время предзагрузки промежутка : 500 мс.
    ServiceKind/String : Complete Main

    Скриншоты для ознакомления



    Все одноименные релизы в Клубе
    Время раздачи: с 18: 00 до 23: 00 (до появления первых 3-5 скачавших)


    Я - Пол Уокер/I Am Paul Walker (2018) WEB-DLRip
    Рейтинг →
     (голосов: 1, оценка 3/5, голосовать можно 1 раз )

    Другие торренты по теме:

  • Джуди Таггарт, Джеки Уокер | Психология вашего гардероба (2014) [FB2]
  • Уэнди Уокер | Я все помню (2016) [FB2]
  • Уокер Пейн / Walker Payne (2006) HDTVRip
  • Норман Уокер | Естественный путь к полноценному здоровью (2009) [FB2, EPUB]
  • Тимоти Уокер | Финская система обучения: Как устроены лучшие школы в мире (2018) [FB2]
  • Сарей Уокер | Диетлэнд (2018) [FB2]
  • Давиде Морозинотто | Знаменитый Каталог Уокер&Даун (2019) [FB2]


    • Комментарии (0):

      Информация

      Информация

        Посетители, находящиеся в группе Гости, не могут оставлять комментарии в данной новости.

        ↓ Меню




        ↓ Опрос

        Вы добавили сайт в закладки?
        Да
        Нет


        Top 10 за месяц (Передачи)