.
Авторизация | Регистрация

Торрент скачать бесплатно

  • support: webmaster@btracker.club
» » Чемпионат мира по лыжным видам спорта 2019. Инсбрук-Зеефельд (Австрия). Лыжное двоеборье. Личное первенство по системе Гундерсена (2019) IPTV [H.264 / 1080p-LQ] торрент скачать бесплатно


    Чемпионат мира по лыжным видам спорта 2019. Инсбрук-Зеефельд (Австрия). Лыжное двоеборье. Личное первенство по системе Гундерсена (2019) IPTV [H.264 / 1080p-LQ] торрент скачать бесплатно

    Дата: 28-02-2019, 05:00 | .torrent скачали: 0

    Чемпионат мира по лыжным видам спорта 2019. Инсбрук-Зеефельд (Австрия). Лыжное двоеборье. Личное первенство по системе Гундерсена (2019) IPTV [H.264 / 1080p-LQ]Телекомпания: Eurosport 1 HD
    Жанр: Спорт
    Комментатор: Сергей Курдюков

    Описание
    22 февраля 2019 года, пятница. 12: 30 МСК
    Чемпионат мира по лыжным видам спорта 2019. Инсбрук-Зеефельд (Австрия)
    Лыжное двоеборье:
    1. Прыжки с трамплина. Большой трамплин К-130
    2. Лыжная Гонка преследования 10 км по системе Гундерсена
    Стадион: Бергизель (Инсбрук, Австрия), Тони Зелос (Зеефельд-ин-Тироль, Австрия)
    Релиз от: Nitta4Ka
    Продолжительность: 01: 12: 13 - 01: 58: 27
    Качество видео: IPTV
    Язык озвучки: Русский
    Субтитры: отсутствуют
    Видео: AVC/H.264, 1920x1080 (16: 9), ~4063-4068 Kbps
    Аудио: AAC, 2 ch, 48 kHz, 192 Kbps

    Общее
    Уникальный идентификатор : 177744367565291245664916981945078699737 (0x85B851EB20BC1DEAC3AF910C835CD6D9)
    Полное имя : F: SPORTFIS Nordic World Ski Championships 2019. Seefeld (AUS)Nordic combined2019-02-22. Nordic Combined WSC. Innsbruck-Seefeld (AUT). Individual Gundersen2019-02-22. Nordic Combined WSC. 1. Innsbruck-Seefeld (AUT). HS130.mkv
    Формат : Matroska
    Версия формата : Version 4
    Размер файла : 3, 52 Гбайт
    Продолжительность : 1 ч. 58 м.
    Режим общего битрейта : Переменный
    Общий поток : 4255 Кбит/сек
    Дата кодирования : UTC 2019-02-22 16: 35: 52
    Программа кодирования : mkvmerge v29.0.0 (\'Like It Or Not\') 64-bit
    Библиотека кодирования : libebml v1.3.6 + libmatroska v1.4.9
    Видео
    Идентификатор : 1
    Формат : AVC
    Формат/Информация : Advanced Video Codec
    Профиль формата : High@L4
    Настройки формата : CABAC/4 Ref Frames
    Параметр CABAC формата : Да
    Параметр RefFrames формата : 4 кадра
    Идентификатор кодека : V_MPEG4/ISO/AVC
    Продолжительность : 1 ч. 58 м.
    Вид битрейта : Переменный
    Битрейт : 4063 Кбит/сек
    Максимальный битрейт : 4500 Кбит/сек
    Ширина : 1920 пикселей
    Высота : 1080 пикселей
    Соотношение сторон : 16: 9
    Режим частоты кадров : Постоянный
    Частота кадров : 25, 000 кадров/сек
    Цветовое пространство : YUV
    Субдискретизация насыщенности : 4: 2: 0
    Битовая глубина : 8 бит
    Тип развёртки : Прогрессивная
    Бит/(Пиксели*Кадры) : 0.078
    Размер потока : 3, 36 Гбайт (95%)
    Default : Да
    Forced : Нет
    Аудио
    Идентификатор : 2
    Формат : AAC LC
    Формат/Информация : Advanced Audio Codec Low Complexity
    Идентификатор кодека : A_AAC-2
    Продолжительность : 1 ч. 58 м.
    Битрейт : 192 Кбит/сек
    Каналы : 2 канала
    Channel layout : L R
    Частота : 48, 0 КГц
    Частота кадров : 46, 875 кадров/сек (1024 SPF)
    Метод сжатия : С потерями
    Размер потока : 160 Мбайт (4%)
    Язык : Russian
    Default : Да
    Forced : Нет

    Общее
    Уникальный идентификатор : 335879366021674717222721286949849896662 (0xFCB0034B99437B9146579A72E3C596D6)
    Полное имя : F: SPORTFIS Nordic World Ski Championships 2019. Seefeld (AUS)Nordic combined2019-02-22. Nordic Combined WSC. Innsbruck-Seefeld (AUT). Individual Gundersen2019-02-22. Nordic Combined WSC. 2. Innsbruck-Seefeld (AUT). Gundersen 10.0 Km.mkv
    Формат : Matroska
    Версия формата : Version 4
    Размер файла : 2, 15 Гбайт
    Продолжительность : 1 ч. 12 м.
    Режим общего битрейта : Переменный
    Общий поток : 4259 Кбит/сек
    Дата кодирования : UTC 2019-02-22 16: 47: 25
    Программа кодирования : mkvmerge v29.0.0 (\'Like It Or Not\') 64-bit
    Библиотека кодирования : libebml v1.3.6 + libmatroska v1.4.9
    Видео
    Идентификатор : 1
    Формат : AVC
    Формат/Информация : Advanced Video Codec
    Профиль формата : High@L4
    Настройки формата : CABAC/4 Ref Frames
    Параметр CABAC формата : Да
    Параметр RefFrames формата : 4 кадра
    Идентификатор кодека : V_MPEG4/ISO/AVC
    Продолжительность : 1 ч. 12 м.
    Вид битрейта : Переменный
    Битрейт : 4068 Кбит/сек
    Максимальный битрейт : 4500 Кбит/сек
    Ширина : 1920 пикселей
    Высота : 1080 пикселей
    Соотношение сторон : 16: 9
    Режим частоты кадров : Постоянный
    Частота кадров : 25, 000 кадров/сек
    Цветовое пространство : YUV
    Субдискретизация насыщенности : 4: 2: 0
    Битовая глубина : 8 бит
    Тип развёртки : Прогрессивная
    Бит/(Пиксели*Кадры) : 0.078
    Размер потока : 2, 05 Гбайт (95%)
    Default : Да
    Forced : Нет
    Аудио
    Идентификатор : 2
    Формат : AAC LC
    Формат/Информация : Advanced Audio Codec Low Complexity
    Идентификатор кодека : A_AAC-2
    Продолжительность : 1 ч. 12 м.
    Битрейт : 192 Кбит/сек
    Каналы : 2 канала
    Channel layout : L R
    Частота : 48, 0 КГц
    Частота кадров : 46, 875 кадров/сек (1024 SPF)
    Метод сжатия : С потерями
    Размер потока : 97, 8 Мбайт (4%)
    Язык : Russian
    Default : Да
    Forced : Нет

    Скриншоты для ознакомления




    Чемпионат мира по лыжным видам спорта 2019. Инсбрук-Зеефельд (Австрия). Лыжное двоеборье. Личное первенство по системе Гундерсена (2019) IPTV [H.264/1080p-LQ]
    Рейтинг →
     (голосов: 1, оценка 3/5, голосовать можно 1 раз )

    Другие торренты по теме:

  • Чемпионат мира по футболу 2018 Россия | Кубок мира v1.17 AdFree [Ru]
  • Хоккей. Чемпионат Мира 2019. Группа B. Швейцария — Россия (19.05.2019) HDTV [H.264 / 1080i-LQ]
  • Хоккей. Чемпионат Мира 2019. Группа B. Швеция — Швейцария (18.05.2019) HDTVRip [H.264 / 720p-LQ] [hand made 50fps]
  • Хоккей. Чемпионат Мира 2019. Группа A. Великобритания — Словакия (18.05.2019) HDTVRip [H.264 / 720p-LQ] [hand made 50fps]
  • Хоккей. Чемпионат Мира 2019. Группа B. Италия — Норвегия (18.05.2019) HDTVRip [H.264 / 720p-LQ]
  • Хоккей. Чемпионат Мира 2019. Группа A. Канада — Германия (18.05.2019) HDTVRip [H.264 / 720p-LQ] [hand made 50fps]
  • Хоккей. Чемпионат Мира 2019. Группа B. Латвия — Россия (18.05.2019) HDTVRip [H.264 / 720p-LQ] [hand made 50fps]
  • Хоккей. Чемпионат Мира 2019. Группа A. Дания — США (18.05.2019) WEB-DL [H.264 / 720p-LQ]


    • Комментарии (0):

      Информация

      Информация

        Посетители, находящиеся в группе Гости, не могут оставлять комментарии в данной новости.

        ↓ Меню




        ↓ Опрос

        Вы добавили сайт в закладки?
        Да
        Нет


        Top 10 за месяц (Передачи)