.
Авторизация | Регистрация
Хочешь лучшие торренты? Добавь свой email!
Добавить

Торрент скачать бесплатно

  • support: webmaster@btracker.club
» » Discovery. Преступники Третьего рейха / Hitlers Most Wanted (2019) HDTVRip [H.264 / 720p-LQ] [50fps] (серии 1 из 10) (Обновляемая) торрент скачать бесплатно


    Discovery. Преступники Третьего рейха / Hitlers Most Wanted (2019) HDTVRip [H.264 / 720p-LQ] [50fps] (серии 1 из 10) (Обновляемая) торрент скачать бесплатно

    Опубликовал: fregat | Дата: 28-02-2019, 05:00 | .torrent скачали: 0

    Discovery. Преступники Третьего рейха / Hitlers Most Wanted (2019) HDTVRip [H.264 / 720p-LQ] [50fps] (серии 1 из 10) (Обновляемая)Производство: Канада, Discovery Communications, LLC.
    Жанр: Документальный, фашизм, история
    Режиссер: Джеймс Эллис

    Описание

    В дни, когда память о событиях Второй мировой войны постепенно стирается, историк Джеймс Эллис вновь говорит о злодеяниях Третьего рейха и о поворотных событиях истории, которые превратили обычных граждан Веймарской республики в убийц и военных преступников. Каким образом целое поколение образованных и свободных от национальных предрассудков граждан цивилизованной европейской страны скатились к варварству и фанатизму и стали виновниками гибели нескольких десятков миллионов человек? Джеймс Эллис попытается ответить на этот вопрос, посещая города, где выросли лидеры и поборники нацистского движения, а также места, где совершались их самые страшные злодеяния.
    Релиз от: GeneralFilm
    Продолжительность: серии x ~ 00: 42: 23
    Качество видео: HDTVRip
    Перевод: Двуголосый закадровый, профессиональный
    Субтитры: отсутствуют
    Видео: AVC/H.264, 1280x720, ~4000 Kbps, 50fps
    Аудио: AAC, 2 ch, 384 Kbps
    (тех. данные всех серий идентичны)
    Общее
    Уникальный идентификатор : 65889239338452499510209291435198477656 (0x3191CE4FD25A2FBEFFEF0A8250A17558)
    Полное имя : F: КИНОHitler\'s Most Wanted 720p GeneralFilm1 Hitler\'s Most Wanted by Starik60 GeneralFilm.mkv
    Формат : Matroska
    Версия формата : Version 2
    Размер файла : 1, 30 Гбайт
    Продолжительность : 42 м. 23 с.
    Режим общего битрейта : Постоянный
    Общий поток : 4389 Кбит/сек
    Программа кодирования : Lavf54.63.104
    Библиотека кодирования : Lavf54.63.104
    Видео
    Идентификатор : 1
    Формат : AVC
    Формат/Информация : Advanced Video Codec
    Профиль формата : High@L4.1
    Настройки формата : CABAC/3 Ref Frames
    Параметр CABAC формата : Да
    Параметр RefFrames формата : 3 кадра
    Идентификатор кодека : V_MPEG4/ISO/AVC
    Продолжительность : 42 м. 23 с.
    Вид битрейта : Постоянный
    Битрейт : 4000 Кбит/сек
    Ширина : 1280 пикселей
    Высота : 720 пикселей
    Соотношение сторон : 16: 9
    Режим частоты кадров : Постоянный
    Частота кадров : 50, 000 кадров/сек
    Стандарт вещания : PAL
    Цветовое пространство : YUV
    Субдискретизация насыщенности : 4: 2: 0
    Битовая глубина : 8 бит
    Тип развёртки : Прогрессивная
    Бит/(Пиксели*Кадры) : 0.087
    Размер потока : 1, 16 Гбайт (89%)
    Default : Нет
    Forced : Нет
    Цветовой диапазон : Limited
    Основные цвета : BT.709
    Характеристики трансфера : BT.709
    Коэффициенты матрицы : BT.709
    Аудио
    Идентификатор : 2
    Формат : MPEG Audio
    Версия формата : Version 1
    Профиль формата : Layer 2
    Идентификатор кодека : A_MPEG/L2
    Идентификатор кодека/Подсказка : MP2
    Продолжительность : 42 м. 23 с.
    Вид битрейта : Постоянный
    Битрейт : 384 Кбит/сек
    Каналы : 2 канала
    Частота : 48, 0 КГц
    Метод сжатия : С потерями
    Задержка видео : 20 мс.
    Размер потока : 116 Мбайт (9%)
    Язык : English
    Default : Да
    Forced : Нет


    Discovery. Преступники Третьего рейха/Hitlers Most Wanted (2019) HDTVRip [H.264/720p-LQ] [50fps] (серии 1 из 10) (Обновляемая)
    Рейтинг →
     (голосов: 1, оценка 4/5, голосовать можно 1 раз )

    Другие торренты по теме:

  • Discovery. Преступники Третьего рейха / Hitlers Most Wanted (2019) HDTVRip (серии 1 из 10) (Обновляемая)


    • Комментарии (0):

      Информация

      Информация

        Посетители, находящиеся в группе Гости, не могут оставлять комментарии в данной новости.

        ↓ Меню




        ↓ Опрос

        Вы добавили сайт в закладки?
        Да
        Нет


        Top 10 за месяц (Передачи)