.
Авторизация | Регистрация

Торрент скачать бесплатно

  • support: webmaster@btracker.club
» » Discovery. Преступники Третьего рейха / Hitlers Most Wanted (2019) HDTVRip (серии 1 из 10) (Обновляемая) торрент скачать бесплатно


    Discovery. Преступники Третьего рейха / Hitlers Most Wanted (2019) HDTVRip (серии 1 из 10) (Обновляемая) торрент скачать бесплатно

    Дата: 28-02-2019, 05:00 | .torrent скачали: 3

    Discovery. Преступники Третьего рейха / Hitlers Most Wanted (2019) HDTVRip (серии 1 из 10) (Обновляемая)Производство: Канада, Discovery Communications, LLC.
    Жанр: Документальный, фашизм, история
    Режиссер: Джеймс Эллис

    Описание

    В дни, когда память о событиях Второй мировой войны постепенно стирается, историк Джеймс Эллис вновь говорит о злодеяниях Третьего рейха и о поворотных событиях истории, которые превратили обычных граждан Веймарской республики в убийц и военных преступников. Каким образом целое поколение образованных и свободных от национальных предрассудков граждан цивилизованной европейской страны скатились к варварству и фанатизму и стали виновниками гибели нескольких десятков миллионов человек? Джеймс Эллис попытается ответить на этот вопрос, посещая города, где выросли лидеры и поборники нацистского движения, а также места, где совершались их самые страшные злодеяния.
    Релиз от: GeneralFilm
    Продолжительность: серии x ~ 00: 42: 25
    Качество видео: HDTVRip
    Перевод: Двуголосый закадровый, профессиональный
    Субтитры: отсутствуют
    Видео: XviD, 720x400, ~1600 Kbps
    Аудио: AC3, 2 ch, 192 Kbps
    (тех. данные всех серий идентичны)
    Общее
    Полное имя : F: КИНОHitler\'s Most Wanted GeneralFilm1 Hitler\'s Most Wanted by Starik60 GeneralFilm.avi
    Формат : AVI
    Формат/Информация : Audio Video Interleave
    Размер файла : 547 Мбайт
    Продолжительность : 42 м. 25 с.
    Общий поток : 1802 Кбит/сек
    Программа кодирования : VirtualDubMod 1.5.10.3 |www.virtualdub-fr.org|| (build 2550/release)
    Библиотека кодирования : VirtualDubMod build 2550/release
    Видео
    Идентификатор : 0
    Формат : MPEG-4 Visual
    Профиль формата : Advanced Simple@L5
    Настройки формата : BVOP1/Custom Matrix
    Параметр BVOP формата : 1
    Параметр QPel формата : Нет
    Параметр GMC формата : Без точки перехода
    Параметр матрицы формата : Выборочная
    Идентификатор кодека : XVID
    Идентификатор кодека/Подсказка : XviD
    Продолжительность : 42 м. 25 с.
    Битрейт : 1600 Кбит/сек
    Ширина : 720 пикселей
    Высота : 400 пикселей
    Соотношение сторон : 16: 9
    Частота кадров : 25, 000 кадров/сек
    Цветовое пространство : YUV
    Субдискретизация насыщенности : 4: 2: 0
    Битовая глубина : 8 бит
    Тип развёртки : Прогрессивная
    Метод сжатия : С потерями
    Бит/(Пиксели*Кадры) : 0.222
    Размер потока : 486 Мбайт (89%)
    Библиотека кодирования : XviD 73
    Аудио
    Идентификатор : 1
    Формат : AC-3
    Формат/Информация : Audio Coding 3
    Коммерческое название : Dolby Digital
    Идентификатор кодека : 2000
    Продолжительность : 42 м. 25 с.
    Вид битрейта : Постоянный
    Битрейт : 192 Кбит/сек
    Каналы : 2 канала
    Channel layout : L R
    Частота : 48, 0 КГц
    Частота кадров : 31, 250 кадров/сек (1536 SPF)
    Битовая глубина : 16 бит
    Метод сжатия : С потерями
    Размер потока : 58, 3 Мбайт (11%)
    Выравнивание : Разделение по промежуткам
    Продолжительность промежутка : 40 мс. (1, 00 видеокадр)
    Время предзагрузки промежутка : 500 мс.
    ServiceKind/String : Complete Main


    Discovery. Преступники Третьего рейха/Hitlers Most Wanted (2019) HDTVRip (серии 1 из 10) (Обновляемая)
    Рейтинг →
     (голосов: 1, оценка 3/5, голосовать можно 1 раз )

    Другие торренты по теме:

  • Discovery. Преступники Третьего рейха / Hitlers Most Wanted (2019) HDTVRip [H.264 / 720p-LQ] [50fps] (серии 1 из 10) (Обновляемая)


    • Комментарии (0):

      Информация

      Информация

        Посетители, находящиеся в группе Гости, не могут оставлять комментарии в данной новости.

        ↓ Меню




        ↓ Опрос

        Вы добавили сайт в закладки?
        Да
        Нет


        Top 10 за месяц (Передачи)