.
Авторизация | Регистрация

Торрент скачать бесплатно

  • support: webmaster@btracker.club
» » Дикая река Конго. Логово Кинг-Конга / Wild Congo. King Kongs Lair (2017) HDTV [H.264 / 1080i-LQ] торрент скачать бесплатно


    Дикая река Конго. Логово Кинг-Конга / Wild Congo. King Kongs Lair (2017) HDTV [H.264 / 1080i-LQ] торрент скачать бесплатно

    Дата: 28-02-2019, 05:00 | .torrent скачали: 0

    Дикая река Конго. Логово Кинг-Конга / Wild Congo. King Kongs Lair (2017) HDTV [H.264 / 1080i-LQ]Производство: Германия, Nat Geo Wild
    Жанр: Документальный, природа, флора, фауна
    Режиссер: Томас Беренд

    Описание

    В глубине густых джунглей в бассейне Конго обитают ближайшие родственники человека - три из четырех известных видов человекообразных обезьян.
    Релиз от: Zakol
    Продолжительность: 00: 43: 54
    Качество видео: HDTV
    Перевод: Дублированный (Велес)
    Субтитры: отсутствуют
    Видео: AVC/H.264, 1920x1080, ~7036 Kbps
    Аудио#1: MP2, 2 ch, 192 Kbps | Русский (текст читал: Олег Белов)
    Аудио#2: MP2, 2 ch, 192 Kbps | Английский

    Общее
    Идентификатор : 1 (0x1)
    Полное имя : F: КИНОДикая река Конго. Логово Кин.-К. 1080 (2017).ts
    Формат : MPEG-TS
    Размер файла : 2, 40 Гбайт
    Продолжительность : 43 м. 54 с.
    Режим общего битрейта : Переменный
    Общий поток : 7810 Кбит/сек
    Видео
    Идентификатор : 1154 (0x482)
    Идентификатор меню : 135 (0x87)
    Формат : AVC
    Формат/Информация : Advanced Video Codec
    Профиль формата : Main@L4
    Настройки формата : CABAC/4 Ref Frames
    Параметр CABAC формата : Да
    Параметр RefFrames формата : 4 кадра
    Идентификатор кодека : 27
    Продолжительность : 43 м. 54 с.
    Битрейт : 7036 Кбит/сек
    Ширина : 1920 пикселей
    Высота : 1080 пикселей
    Соотношение сторон : 16: 9
    Частота кадров : 25, 000 кадров/сек
    Стандарт вещания : Component
    Цветовое пространство : YUV
    Субдискретизация насыщенности : 4: 2: 0
    Битовая глубина : 8 бит
    Тип развёртки : Чересстрочная
    Метод сохранения типа развёртки : Раздельные поля
    Порядок развёртки : Верхнее поле первое
    Бит/(Пиксели*Кадры) : 0.136
    Размер потока : 2, 16 Гбайт (90%)
    Цветовой диапазон : Limited
    Основные цвета : BT.709
    Характеристики трансфера : BT.709
    Коэффициенты матрицы : BT.709
    Аудио #1
    Идентификатор : 1155 (0x483)
    Идентификатор меню : 135 (0x87)
    Формат : MPEG Audio
    Версия формата : Version 1
    Профиль формата : Layer 2
    Идентификатор кодека : 3
    Продолжительность : 43 м. 54 с.
    Вид битрейта : Постоянный
    Битрейт : 192 Кбит/сек
    Каналы : 2 канала
    Частота : 48, 0 КГц
    Частота кадров : 41, 667 кадра/сек (1152 SPF)
    Метод сжатия : С потерями
    Размер потока : 60, 3 Мбайт (2%)
    Язык : Russian
    Аудио #2
    Идентификатор : 1156 (0x484)
    Идентификатор меню : 135 (0x87)
    Формат : MPEG Audio
    Версия формата : Version 1
    Профиль формата : Layer 2
    Идентификатор кодека : 3
    Продолжительность : 43 м. 54 с.
    Вид битрейта : Постоянный
    Битрейт : 192 Кбит/сек
    Каналы : 2 канала
    Частота : 48, 0 КГц
    Частота кадров : 41, 667 кадра/сек (1152 SPF)
    Метод сжатия : С потерями
    Размер потока : 60, 3 Мбайт (2%)
    Язык : English

    Скриншоты для ознакомления



    Все одноименные релизы в Клубе
    Время раздачи: с 18: 00 до 23: 00 (до появления первых 3-5 скачавших)


    Дикая река Конго. Логово Кинг-Конга/Wild Congo. King Kongs Lair (2017) HDTV [H.264/1080i-LQ]
    Рейтинг →
     (голосов: 1, оценка 5/5, голосовать можно 1 раз )

    Другие торренты по теме:

  • Дикая река / The River Wild (1994) HDRip [AVO]
  • Дикая река / The River Wild (1994) HDRip [AVO]
  • Дикая река / The River Wild (1994) BDRip
  • NGW: Дикая река Конго / Wild Congo (2017) HDTV [H.264 / 1080i-LQ]


    • Комментарии (0):

      Информация

      Информация

        Посетители, находящиеся в группе Гости, не могут оставлять комментарии в данной новости.

        ↓ Меню




        ↓ Опрос

        Вы добавили сайт в закладки?
        Да
        Нет


        Top 10 за месяц (Передачи)