.
Авторизация | Регистрация
Хочешь лучшие торренты? Добавь свой email!
Добавить

Торрент скачать бесплатно

  • support: webmaster@btracker.club
» » Загадка полярного сияния / Mystery of the Northern Lights (2018) HDTVRip торрент скачать бесплатно


    Загадка полярного сияния / Mystery of the Northern Lights (2018) HDTVRip торрент скачать бесплатно

    Опубликовал: fregat | Дата: 28-02-2019, 05:00 | .torrent скачали: 0

    Загадка полярного сияния / Mystery of the Northern Lights (2018) HDTVRipПроизводство: Великобритания, Windfall Films Limited Handel Productions Inc.
    Жанр: Документальный, познавательный, научно-популярный
    Режиссер: Том Ронсон

    Описание

    2200 км сурового, каменистого, продуваемого всеми ветрами побережья. Более 10000 лет здесь существовали сотни весьма своеобразных сообществ. Это самая долгоживущая культура в обеих Америках, которая создала уникальное и сложное общество, которое меняет наши представления о развитии человеческой культуры.

    Релиз от: рип Zakol
    Продолжительность: 00: 49: 59
    Качество видео: HDTVRip
    Перевод: Одноголосый закадровый, профессиональный (SDI Media)
    Субтитры: отсутствуют
    Видео: XviD, 720х400, ~1800 Kbps
    Аудио: AC3, 2 ch, 128 Kbps (читает: Иван Породнов)

    Общее
    Полное имя : F: КИНОЗагадка поляр. сияния 1400M (2018).avi
    Формат : AVI
    Формат/Информация : Audio Video Interleave
    Размер файла : 693 Мбайт
    Продолжительность : 49 м. 59 с.
    Общий поток : 1939 Кбит/сек
    Программа кодирования : Lavf57.71.100
    Видео
    Идентификатор : 0
    Формат : MPEG-4 Visual
    Профиль формата : Advanced Simple@L5
    Настройки формата : BVOP1
    Параметр BVOP формата : 1
    Параметр QPel формата : Нет
    Параметр GMC формата : Без точки перехода
    Параметр матрицы формата : Default (H.263)
    Идентификатор кодека : XVID
    Идентификатор кодека/Подсказка : XviD
    Продолжительность : 49 м. 59 с.
    Битрейт : 1800 Кбит/сек
    Ширина : 720 пикселей
    Высота : 400 пикселей
    Соотношение сторон : 16: 9
    Частота кадров : 25, 000 кадров/сек
    Цветовое пространство : YUV
    Субдискретизация насыщенности : 4: 2: 0
    Битовая глубина : 8 бит
    Тип развёртки : Прогрессивная
    Метод сжатия : С потерями
    Бит/(Пиксели*Кадры) : 0.250
    Размер потока : 644 Мбайт (93%)
    Библиотека кодирования : XviD 67
    Аудио
    Идентификатор : 1
    Формат : AC-3
    Формат/Информация : Audio Coding 3
    Коммерческое название : Dolby Digital
    Идентификатор кодека : 2000
    Продолжительность : 49 м. 59 с.
    Вид битрейта : Постоянный
    Битрейт : 128 Кбит/сек
    Каналы : 2 канала
    Channel layout : L R
    Частота : 48, 0 КГц
    Частота кадров : 31, 250 кадров/сек (1536 SPF)
    Битовая глубина : 16 бит
    Метод сжатия : С потерями
    Размер потока : 45, 8 Мбайт (7%)
    Выравнивание : Соединение по промежуткам
    Продолжительность промежутка : 32 мс. (0, 80 видеокадр)
    ServiceKind/String : Complete Main

    Скриншоты для ознакомления




    Все одноименные релизы в Клубе
    Время раздачи: с 18: 00 до 23: 00 (до появления первых 3-5 скачавших)


    Загадка полярного сияния/Mystery of the Northern Lights (2018) HDTVRip
    Рейтинг →
     (голосов: 1, оценка 3/5, голосовать можно 1 раз )

    Другие торренты по теме:

  • Нефертити. Загадка мумии царицы / Nefertiti. Mummy Queen Mystery (2011) SATRip
  • BBC: Загадка римских катакомб / The Mystery of Romes X Tomb (2013) SATRip
  • Книжная серия | Книга - загадка, книга - бестселлер [181 книг] (2005-2014) [FB2]
  • Wallpapers - Блондинки всегда загадка [JPEG] скачать через торрент бесплатно
  • Земля. Территория загадок. Загадка царского жезла (2014) SATRip
  • Земля. Территория загадок. Загадка гробницы великана (2014) SATRip
  • Книжная серия | Книга-загадка, книга-бестселлер [185 книг] (2001-2013) [FB2]
  • Кавах Иджен. Загадка синего пламени (2013) SATRip скачать через торрент бесплатно


    • Комментарии (0):

      Информация

      Информация

        Посетители, находящиеся в группе Гости, не могут оставлять комментарии в данной новости.

        ↓ Меню




        ↓ Опрос

        Вы добавили сайт в закладки?
        Да
        Нет


        Top 10 за месяц (Передачи)