.
Авторизация | Регистрация
Хочешь лучшие торренты? Добавь свой email!
Добавить

Торрент скачать бесплатно

  • support: webmaster@btracker.club
» » NGW. Человек против пумы / Man vs. Puma (2018) HDTV [H.264 / 1080i-LQ] торрент скачать бесплатно


    NGW. Человек против пумы / Man vs. Puma (2018) HDTV [H.264 / 1080i-LQ] торрент скачать бесплатно

    Опубликовал: fregat | Дата: 28-02-2019, 05:00 | .torrent скачали: 0

    NGW. Человек против пумы / Man vs. Puma (2018) HDTV [H.264 / 1080i-LQ]Производство: США, Red Rock Films, Nat Geo Wild
    Жанр: Документальный, природа, флора, фауна
    Режиссер: Алекс Слэттен

    Описание

    Эксперт по большим кошкам Бун Смит отправляется в Патагонию, чтобы пройти по следам пум по их причудливым, кровавым и смертельно опасным тропам. А также заснять их образ жизни, начиная от котят, и кончая взрослыми грациозными хищниками-прирожденными убийцами.
    Релиз от: Zakol
    Продолжительность: 00: 43: 25
    Качество видео: HDTV
    Перевод: Одноголосый закадровый, профессиональный (Велес)
    Субтитры: отсутствуют
    Видео: AVC/H.264, 1920x1080, ~7034 Kbps
    Аудио#1: MP2, 2 ch, 192 Kbps | Русский (читал: Борис Хасанов)
    Аудио#2: MP2, 2 ch, 192 Kbps | Английский

    Общее
    Идентификатор : 1 (0x1)
    Полное имя : F: КИНОЧеловек против пумы 1080 (2018).ts
    Формат : MPEG-TS
    Размер файла : 2, 37 Гбайт
    Продолжительность : 43 м. 25 с.
    Режим общего битрейта : Переменный
    Общий поток : 7808 Кбит/сек
    Видео
    Идентификатор : 1154 (0x482)
    Идентификатор меню : 135 (0x87)
    Формат : AVC
    Формат/Информация : Advanced Video Codec
    Профиль формата : Main@L4
    Настройки формата : CABAC/4 Ref Frames
    Параметр CABAC формата : Да
    Параметр RefFrames формата : 4 кадра
    Идентификатор кодека : 27
    Продолжительность : 43 м. 25 с.
    Битрейт : 7034 Кбит/сек
    Ширина : 1920 пикселей
    Высота : 1080 пикселей
    Соотношение сторон : 16: 9
    Частота кадров : 25, 000 кадров/сек
    Стандарт вещания : Component
    Цветовое пространство : YUV
    Субдискретизация насыщенности : 4: 2: 0
    Битовая глубина : 8 бит
    Тип развёртки : Чересстрочная
    Метод сохранения типа развёртки : Раздельные поля
    Порядок развёртки : Верхнее поле первое
    Бит/(Пиксели*Кадры) : 0.136
    Размер потока : 2, 13 Гбайт (90%)
    Цветовой диапазон : Limited
    Основные цвета : BT.709
    Характеристики трансфера : BT.709
    Коэффициенты матрицы : BT.709
    Аудио #1
    Идентификатор : 1155 (0x483)
    Идентификатор меню : 135 (0x87)
    Формат : MPEG Audio
    Версия формата : Version 1
    Профиль формата : Layer 2
    Идентификатор кодека : 3
    Продолжительность : 43 м. 25 с.
    Вид битрейта : Постоянный
    Битрейт : 192 Кбит/сек
    Каналы : 2 канала
    Частота : 48, 0 КГц
    Частота кадров : 41, 667 кадра/сек (1152 SPF)
    Метод сжатия : С потерями
    Размер потока : 59, 6 Мбайт (2%)
    Язык : Russian
    Аудио #2
    Идентификатор : 1156 (0x484)
    Идентификатор меню : 135 (0x87)
    Формат : MPEG Audio
    Версия формата : Version 1
    Профиль формата : Layer 2
    Идентификатор кодека : 3
    Продолжительность : 43 м. 25 с.
    Вид битрейта : Постоянный
    Битрейт : 192 Кбит/сек
    Каналы : 2 канала
    Частота : 48, 0 КГц
    Частота кадров : 41, 667 кадра/сек (1152 SPF)
    Метод сжатия : С потерями
    Размер потока : 59, 6 Мбайт (2%)
    Язык : English

    Скриншоты для ознакомления



    Все одноименные релизы в Клубе
    Время раздачи: с 18: 00 до 23: 00 (до появления первых 3-5 скачавших)


    NGW. Человек против пумы/Man vs. Puma (2018) HDTV [H.264/1080i-LQ]
    Рейтинг →
     (голосов: 1, оценка 4/5, голосовать можно 1 раз )

    Другие торренты по теме:

  • Беар Гриллс: Человек против Эвереста / Bear Grylls: Man vs Everest (2014) HDTVRip [H.264 / 720p] скачать через торрент бесплатно
  • Человек против мозга (2016) WEB-DLRip (выпуски 1-4)
  • Атомный Человек против Супермена / Atom Man vs. Superman (1950) DVDRip [H.264] (сезон 1, серии 1-15 из 15) [MP4|640x480@658x480]
  • Человек против... / Man Vs. (2015) WEB-DLRip
  • NGW: Человек против животного / Man V. animal (2017) HDTV [H.264 / 1080i-LQ] (серии 11 из 11)
  • NGW: Человек против монстра / Man vs Monster (2011-2012) HDTV [H.264 / 1080i-LQ] (Сезоны 1-2, серии 6 из 9)
  • NG: Человек против youtube / Man v. Viral (2015) HDTVRip [H.264 / 1080p-LQ] (сезон 1, серии 1 из 6) (Обновляемая)


    • Комментарии (0):

      Информация

      Информация

        Посетители, находящиеся в группе Гости, не могут оставлять комментарии в данной новости.

        ↓ Меню




        ↓ Опрос

        Вы добавили сайт в закладки?
        Да
        Нет


        Top 10 за месяц (Передачи)