.
Авторизация | Регистрация
Хочешь лучшие торренты? Добавь свой email!
Добавить

Торрент скачать бесплатно

  • support: webmaster@btracker.club
» » BBC. Горы - жизнь над облаками / Mountain: Life at the Extreme (2017) HDTVRip (серии 1-3 из 3) торрент скачать бесплатно


    BBC. Горы - жизнь над облаками / Mountain: Life at the Extreme (2017) HDTVRip (серии 1-3 из 3) торрент скачать бесплатно

    Опубликовал: fregat | Дата: 28-02-2019, 05:00 | .torrent скачали: 0

    BBC. Горы - жизнь над облаками / Mountain: Life at the Extreme (2017) HDTVRip (серии 1-3 из 3)Производство: Великобритания, A BBC Studios production for BBC and PBS
    Жанр: Документальный, путешествия, флора, фауна
    Режиссер: Алекс Ланчестер

    Описание

    Высоко над облаками лежат затерянные миры - неизведанные, неумолимые и совершенно непредсказуемые. Но в этих гигантских горных цепях планеты существует жизнь. Вопреки всему некоторые замечательные животные и удивительные люди нашли свое пристанище в самых высоких горах Земли. Знаменитая серия из 3 частей из Отдела естественной истории Би-би-си, раскрывающая необыкновенных животных и замечательных людей, которые делают дом в знаковых горных хребтах мира - Гималаях, Скалистых горах и Андах.

    Релиз от: Brux
    Продолжительность: 3 x ~ 00: 50: 00
    Качество видео: HDTVRip
    Перевод: Одноголосый закадровый, профессиональный
    Субтитры: отсутствуют
    Видео: XviD, 720x400, ~1364 Kbps
    Аудио: AC3, 2 ch, 192 Kbps

    Общее
    Полное имя : F: КИНОGory.zhizn.nad.oblakami.XviD.2017.HDTVRip.Brux02.avi
    Формат : AVI
    Формат/Информация : Audio Video Interleave
    Размер файла : 550 Мбайт
    Продолжительность : 49 м. 8 с.
    Общий поток : 1566 Кбит/сек
    Режиссёр : Brux
    Программа кодирования : VirtualDubMod 1.5.10.3 |www.virtualdub-fr.org|| (build 2550/release)
    Авторское право : interhit.org
    Видео
    Идентификатор : 0
    Формат : MPEG-4 Visual
    Профиль формата : Advanced Simple@L5
    Настройки формата : BVOP2/Custom Matrix
    Параметр BVOP формата : 2
    Параметр QPel формата : Нет
    Параметр GMC формата : Без точки перехода
    Параметр матрицы формата : Выборочная
    Идентификатор кодека : XVID
    Идентификатор кодека/Подсказка : XviD
    Продолжительность : 49 м. 8 с.
    Битрейт : 1364 Кбит/сек
    Ширина : 720 пикселей
    Высота : 400 пикселей
    Соотношение сторон : 16: 9
    Частота кадров : 25, 000 кадров/сек
    Цветовое пространство : YUV
    Субдискретизация насыщенности : 4: 2: 0
    Битовая глубина : 8 бит
    Тип развёртки : Прогрессивная
    Метод сжатия : С потерями
    Бит/(Пиксели*Кадры) : 0.189
    Размер потока : 479 Мбайт (87%)
    Библиотека кодирования : XviD 73
    Аудио
    Идентификатор : 1
    Формат : AC-3
    Формат/Информация : Audio Coding 3
    Коммерческое название : Dolby Digital
    Идентификатор кодека : 2000
    Продолжительность : 49 м. 8 с.
    Вид битрейта : Постоянный
    Битрейт : 192 Кбит/сек
    Каналы : 2 канала
    Channel layout : L R
    Частота : 48, 0 КГц
    Частота кадров : 31, 250 кадров/сек (1536 SPF)
    Битовая глубина : 16 бит
    Метод сжатия : С потерями
    Размер потока : 67, 5 Мбайт (12%)
    Выравнивание : Разделение по промежуткам
    Продолжительность промежутка : 40 мс. (1, 00 видеокадр)
    Время предзагрузки промежутка : 500 мс.
    ServiceKind/String : Complete Main

    Скриншоты для ознакомления





    Все одноименные релизы в Клубе
    Время раздачи: с 18: 00 до 23: 00 (до появления первых 3-5 скачавших)


    BBC. Горы - жизнь над облаками/Mountain: Life at the Extreme (2017) HDTVRip (серии 1-3 из 3)
    Рейтинг →
     (голосов: 1, оценка 5/5, голосовать можно 1 раз )

    Другие торренты по теме:

  • Yama no Susume: Second Season / В горы! Второй сезон [2014, TV, 3 из 24] HDTV 720p Hi10p raw
  • Земля. Территория загадок. Высота 6666. Легенды горы Кайлас (2014) SATRip
  • Мария Семёнова | Самоцветные горы (2015) [MP3]
  • Марк Ходдер | Экспедиция в Лунные Горы (2013) [FB2] скачать через торрент бесплатно
  • Лунные горы / Mountains of the Moon (1990) DVDRip скачать через торрент бесплатно
  • Картинки - Лес и горы. Часть 2. 7680x4320 - 50 шт [JPG] скачать через торрент бесплатно
  • Павел Бажов | Каменный цветок, Малахитовая шкатулка, Медной горы Хозяйка и другие сказы (2003) [MP3] скачать через торрент бесплатно
  • Обои - Горы (big Pack 3) [JPG] скачать через торрент бесплатно


    • Комментарии (0):

      Информация

      Информация

        Посетители, находящиеся в группе Гости, не могут оставлять комментарии в данной новости.

        ↓ Меню




        ↓ Опрос

        Вы добавили сайт в закладки?
        Да
        Нет


        Top 10 за месяц (Передачи)