.
Авторизация | Регистрация
Хочешь лучшие торренты? Добавь свой email!
Добавить

Торрент скачать бесплатно

  • support: webmaster@btracker.club
» » NG. Вдоль Великой Китайской стены / Trekking The Great Wall (2011) HDTV [H.264 / 1080i-LQ] торрент скачать бесплатно


    NG. Вдоль Великой Китайской стены / Trekking The Great Wall (2011) HDTV [H.264 / 1080i-LQ] торрент скачать бесплатно

    Опубликовал: fregat | Дата: 28-02-2019, 05:00 | .torrent скачали: 0

    NG. Вдоль Великой Китайской стены / Trekking The Great Wall (2011) HDTV [H.264 / 1080i-LQ]Производство: Германия, Ggruppe 5 Filmproduktion GMBH
    Жанр: Документальный, архитектура, история
    Режиссер: Кристиан Твенте

    Описание

    Великая Китайская стена - одно из величайших архитектурных чудес света. Говорят, что её можно увидеть даже из космоса. Этот древний шедевр фортификации был свидетелем сотен сражений и, тем не менее, хранит множество загадок... Английский писатель и историк Уильям Линси прожил в Китае 20 лет. Изучение Великой Китайской стены стало страстью всей его жизни. Линси провел на стене тысячи дней и прошёл вдоль неё тысячи километров. Какова же точная длина Великой стены? Сколько лет ушло на её возведение? И зачем её вообще построили?
    Релиз от: DaVinci (History)
    Продолжительность: 00: 44: 50
    Качество видео: HDTV
    Перевод: Одноголосый закадровый, профессиональный (АРК-ТВ)
    Субтитры: отсутствуют
    Видео: AVC/H.264, 1920x1080, ~7803 Kbps
    Аудио#1: AC3, 2 ch, 192 Kbps | Русский (читает: А. Гаврилин)
    Аудио#2: AC3, 2 ch, 192 Kbps | Английский

    Общее
    Идентификатор : 1 (0x1)
    Полное имя : F: КИНОTrekking.the.Great.Wall.(2011).1080i.HDTV.Rus.Eng-BLUEBIRD.ts
    Формат : MPEG-TS
    Размер файла : 2, 70 Гбайт
    Продолжительность : 44 м. 50 с.
    Режим общего битрейта : Переменный
    Общий поток : 8617 Кбит/сек
    Видео
    Идентификатор : 4113 (0x1011)
    Идентификатор меню : 1 (0x1)
    Формат : AVC
    Формат/Информация : Advanced Video Codec
    Профиль формата : High@L4
    Настройки формата : CABAC/3 Ref Frames
    Параметр CABAC формата : Да
    Параметр RefFrames формата : 3 кадра
    Идентификатор кодека : 27
    Продолжительность : 44 м. 50 с.
    Вид битрейта : Переменный
    Битрейт : 7803 Кбит/сек
    Максимальный битрейт : 40, 0 Мбит/сек
    Ширина : 1920 пикселей
    Высота : 1080 пикселей
    Соотношение сторон : 16: 9
    Частота кадров : 25, 000 кадров/сек
    Стандарт вещания : Component
    Цветовое пространство : YUV
    Субдискретизация насыщенности : 4: 2: 0
    Битовая глубина : 8 бит
    Тип развёртки : Чересстрочная
    Метод сохранения типа развёртки : Раздельные поля
    Порядок развёртки : Верхнее поле первое
    Бит/(Пиксели*Кадры) : 0.151
    Размер потока : 2, 44 Гбайт (91%)
    Цветовой диапазон : Limited
    Основные цвета : BT.709
    Характеристики трансфера : BT.709
    Коэффициенты матрицы : BT.709
    Аудио #1
    Идентификатор : 4352 (0x1100)
    Идентификатор меню : 1 (0x1)
    Формат : AC-3
    Формат/Информация : Audio Coding 3
    Коммерческое название : Dolby Digital
    Идентификатор кодека : 129
    Продолжительность : 44 м. 49 с.
    Вид битрейта : Постоянный
    Битрейт : 192 Кбит/сек
    Каналы : 2 канала
    Channel layout : L R
    Частота : 48, 0 КГц
    Частота кадров : 31, 250 кадров/сек (1536 SPF)
    Битовая глубина : 16 бит
    Метод сжатия : С потерями
    Размер потока : 61, 6 Мбайт (2%)
    Язык : Russian
    ServiceKind/String : Complete Main
    Аудио #2
    Идентификатор : 4353 (0x1101)
    Идентификатор меню : 1 (0x1)
    Формат : AC-3
    Формат/Информация : Audio Coding 3
    Коммерческое название : Dolby Digital
    Идентификатор кодека : 129
    Продолжительность : 44 м. 50 с.
    Вид битрейта : Постоянный
    Битрейт : 192 Кбит/сек
    Каналы : 2 канала
    Channel layout : L R
    Частота : 48, 0 КГц
    Частота кадров : 31, 250 кадров/сек (1536 SPF)
    Битовая глубина : 16 бит
    Метод сжатия : С потерями
    Размер потока : 61, 6 Мбайт (2%)
    Язык : English
    ServiceKind/String : Complete Main

    Скриншоты для ознакомления



    Все одноименные релизы в Клубе
    Время раздачи: с 18: 00 до 23: 00 (до появления первых 3-5 скачавших)


    NG. Вдоль Великой Китайской стены/Trekking The Great Wall (2011) HDTV [H.264/1080i-LQ]
    Рейтинг →
     (голосов: 1, оценка 4/5, голосовать можно 1 раз )

    Другие торренты по теме:

  • Discovery. Пешком вдоль Нила / Walking the Nile (сезон 1, серия 1 из 4) (2015) HDTVRip (обновляемая) скачать через торрент бесплатно
  • Вдоль ночных дорог (2014) WEBRip [H.264 / 1080p-LQ]
  • Discovery. Пешком вдоль Нила / Walking the Nile (2015) HDTV [H.264 / 1080i-LQ] (сезон 1, серии 1-4 из 4)
  • NGW: Вдоль по Окаванго / Into the Okavango (2018) HDTV [H.264 / 1080i-LQ]
  • Города вдоль реки Чжуцзян / Cities along the river Zhu Jiang (2017) WEBRip [H.264 / 720p-LQ] (cерии 1-10)


    • Комментарии (0):

      Информация

      Информация

        Посетители, находящиеся в группе Гости, не могут оставлять комментарии в данной новости.

        ↓ Меню




        ↓ Опрос

        Вы добавили сайт в закладки?
        Да
        Нет


        Top 10 за месяц (Передачи)