.
Авторизация | Регистрация
Хочешь лучшие торренты? Добавь свой email!
Добавить

Торрент скачать бесплатно

  • support: webmaster@btracker.club
» » Обитаемый остров / The Island Diaries (2016-2017) HDTV [H.264 / 1080i-LQ] (сезоны 1-2, cерии 1-13 из 26) (Обновляемая) торрент скачать бесплатно


    Обитаемый остров / The Island Diaries (2016-2017) HDTV [H.264 / 1080i-LQ] (сезоны 1-2, cерии 1-13 из 26) (Обновляемая) торрент скачать бесплатно

    Опубликовал: fregat | Дата: 27-02-2019, 05:00 | .torrent скачали: 0

    Обитаемый остров / The Island Diaries (2016-2017) HDTV [H.264 / 1080i-LQ] (сезоны 1-2, cерии 1-13 из 26) (Обновляемая)Производство: Канада, DBCom Media
    Жанр: Документальный, природа, путешествия
    Режиссер: Николя Буше

    Описание

    Софи Фурон открывает жизнь на островах по всему миру. Она исследует её на воде, вдоль берега и в самых укромных уголках островов. Софи узнает у обитателей островов, какие трудности их подстерегают, что они едят, о ком заботятся, чем зарабатывают на жизнь и как они отдыхают.
    Релиз от: san007
    Продолжительность: серии x ~00: 47: 30
    Качество видео: HDTV
    Перевод: Двуголосый закадровый, профессиональный
    Субтитры: отсутствуют
    Видео: AVC/H.264, 1920x1080, ~6783 Kbps
    Аудио#1: MP2, 2 ch, 192 Kbps | Русский
    Аудио#2: MP2, 2 ch, 192 Kbps | Английский

    Общее
    Уникальный идентификатор : 190970293985263838927205850503377501542 (0x8FAB8A6FBC9251A49308FF8B6482BD66)
    Полное имя : F: КИНОThe Island DiariesThe Island Diaries S01E07 Okinawa, Japan (1080i).mkv
    Формат : Matroska
    Версия формата : Version 4
    Размер файла : 2, 42 Гбайт
    Продолжительность : 47 м. 28 с.
    Общий поток : 7313 Кбит/сек
    Название фильма : The Island Diaries S01E07 Okinawa, Japan
    Дата кодирования : UTC 2018-11-17 10: 53: 39
    Программа кодирования : mkvmerge v7.7.0 (\'Six Voices\') 64bit built on Feb 28 2015 23: 39: 33
    Библиотека кодирования : libebml v1.3.1 + libmatroska v1.4.2
    Видео
    Идентификатор : 1
    Формат : AVC
    Формат/Информация : Advanced Video Codec
    Профиль формата : High@L4
    Настройки формата : CABAC/4 Ref Frames
    Параметр CABAC формата : Да
    Параметр RefFrames формата : 4 кадра
    Идентификатор кодека : V_MPEG4/ISO/AVC
    Продолжительность : 47 м. 28 с.
    Битрейт : 6783 Кбит/сек
    Ширина : 1920 пикселей
    Высота : 1080 пикселей
    Соотношение сторон : 16: 9
    Режим частоты кадров : Постоянный
    Частота кадров : 25, 000 кадров/сек
    Цветовое пространство : YUV
    Субдискретизация насыщенности : 4: 2: 0
    Битовая глубина : 8 бит
    Тип развёртки : MBAFF
    Метод сохранения типа развёртки : Чередующиеся поля
    Порядок развёртки : Верхнее поле первое
    Бит/(Пиксели*Кадры) : 0.131
    Размер потока : 2, 25 Гбайт (93%)
    Default : Да
    Forced : Нет
    Аудио #1
    Идентификатор : 2
    Формат : MPEG Audio
    Версия формата : Version 1
    Профиль формата : Layer 2
    Настройки формата : Joint stereo/Intensity Stereo + MS Stereo
    Идентификатор кодека : A_MPEG/L2
    Идентификатор кодека/Подсказка : MP2
    Продолжительность : 47 м. 28 с.
    Вид битрейта : Постоянный
    Битрейт : 192 Кбит/сек
    Каналы : 2 канала
    Частота : 48, 0 КГц
    Метод сжатия : С потерями
    Размер потока : 65, 2 Мбайт (3%)
    Заголовок : Russian
    Язык : Russian
    Default : Да
    Forced : Нет
    Аудио #2
    Идентификатор : 3
    Формат : MPEG Audio
    Версия формата : Version 1
    Профиль формата : Layer 2
    Настройки формата : Joint stereo/Intensity Stereo + MS Stereo
    Идентификатор кодека : A_MPEG/L2
    Идентификатор кодека/Подсказка : MP2
    Продолжительность : 47 м. 28 с.
    Вид битрейта : Постоянный
    Битрейт : 192 Кбит/сек
    Каналы : 2 канала
    Частота : 48, 0 КГц
    Метод сжатия : С потерями
    Размер потока : 65, 2 Мбайт (3%)
    Заголовок : English
    Язык : English
    Default : Нет
    Forced : Нет


    Обитаемый остров/The Island Diaries (2016-2017) HDTV [H.264/1080i-LQ] (сезоны 1-2, cерии 1-13 из 26) (Обновляемая)
    Рейтинг →
     (голосов: 1, оценка 3/5, голосовать можно 1 раз )

    Другие торренты по теме:

  • Аркадий и Борис Стругацкие | Обитаемый остров. Малыш. Жук в муравейнике. Волны гасят ветер (2002) [DJVU]
  • Робинзон Крузо: Очень обитаемый остров / Robinson Crusoe (2016) WEB-DL [H.264 / 720p-LQ]
  • Робинзон Крузо: Очень обитаемый остров / Robinson Crusoe (2016) WEB-DL [H.264 / 1080p-LQ]
  • Робинзон Крузо: Очень обитаемый остров / Robinson Crusoe (2016) WEB-DLRip
  • Робинзон Крузо: Очень обитаемый остров / Robinson Crusoe (2016) WEB-DL [1080p] ATV
  • Робинзон Крузо: Очень обитаемый остров / Robinson Crusoe (2016) BDRip [H.264 / 720p-LQ]
  • Робинзон Крузо: Очень обитаемый остров / Robinson Crusoe (2016) BDRip [H.264 / 1080p-LQ]
  • Робинзон Крузо: Очень обитаемый остров / Robinson Crusoe (2016) HDRip


    • Комментарии (0):

      Информация

      Информация

        Посетители, находящиеся в группе Гости, не могут оставлять комментарии в данной новости.

        ↓ Меню




        ↓ Опрос

        Вы добавили сайт в закладки?
        Да
        Нет


        Top 10 за месяц (Передачи)