.
Авторизация | Регистрация
Хочешь лучшие торренты? Добавь свой email!
Добавить

Торрент скачать бесплатно

  • support: webmaster@btracker.club
» » Норвегия / Norway (2018) WEBRip [H.264 / 2160p] [4K, UHD] (2 части) торрент скачать бесплатно


    Норвегия / Norway (2018) WEBRip [H.264 / 2160p] [4K, UHD] (2 части) торрент скачать бесплатно

    Опубликовал: fregat | Дата: 27-02-2019, 05:00 | .torrent скачали: 0

    Норвегия / Norway (2018) WEBRip [H.264 / 2160p] [4K, UHD] (2 части)Производство: Норвегия
    Жанр: Документальный, видовой
    Режиссер: Мартин Хек

    Описание

    Исследуйте сырую и дикую природу Норвегии в сверхвысоком разрешении. Из эпических пейзажей днем ​​и величественных шоу Аврора ночью. Окунитесь в видео, которое призвано перенести вас в один из самых красивых уголков земли.
    Продолжительность: 00: 03: 33+00: 07: 03
    Качество видео: WEBRip
    Перевод: Не требуется (нет диалогов и комментариев)
    Субтитры: отсутствуют
    Видео: AVC/H.264, 3840x2160, ~19, 4 Mbps; ~15, 7 Mbps
    Аудио: AAC, 2 ch, 256 Kbps; 137 Kbps

    Общее
    Уникальный идентификатор : 222365471483046155238530683584117881254 (0xA74A0831FBF4ED0D0D52AC76475239A6)
    Полное имя : F: КИНОНОРВЕГИЯНОРВЕГИЯ 01.mkv
    Формат : Matroska
    Версия формата : Version 4
    Размер файла : 499 Мбайт
    Продолжительность : 3 м. 33 с.
    Общий поток : 19, 6 Мбит/сек
    Дата кодирования : UTC 2019-02-26 12: 43: 19
    Программа кодирования : mkvmerge v31.0.0 (\'Dolores In A Shoestand\') 64-bit
    Библиотека кодирования : libebml v1.3.6 + libmatroska v1.4.9
    Видео
    Идентификатор : 1
    Формат : AVC
    Формат/Информация : Advanced Video Codec
    Профиль формата : High@L5.2
    Настройки формата : CABAC/5 Ref Frames
    Параметр CABAC формата : Да
    Параметр RefFrames формата : 5 кадров
    Идентификатор кодека : V_MPEG4/ISO/AVC
    Продолжительность : 3 м. 33 с.
    Битрейт : 19, 4 Мбит/сек
    Ширина : 3840 пикселей
    Высота : 2160 пикселей
    Соотношение сторон : 16: 9
    Режим частоты кадров : Постоянный
    Частота кадров : 29, 970 (30000/1001) кадров/сек
    Цветовое пространство : YUV
    Субдискретизация насыщенности : 4: 2: 0
    Битовая глубина : 8 бит
    Тип развёртки : Прогрессивная
    Бит/(Пиксели*Кадры) : 0.078
    Размер потока : 493 Мбайт (99%)
    Библиотека кодирования : x264 core 148 r11 7599210
    Настройки программы : cabac=1/ref=5/deblock=1: 0: 0/analyse=0x3: 0x113/me=umh/subme=8/psy=1/psy_rd=1.00: 0.00/mixed_ref=1/me_range=16/chroma_me=1/trellis=1/8x8dct=1/cqm=0/deadzone=21, 11/fast_pskip=1/chroma_qp_offset=-2/threads=67/lookahead_threads=11/sliced_threads=0/nr=0/decimate=1/interlaced=0/bluray_compat=0/stitchable=1/constrained_intra=0/bframes=3/b_pyramid=2/b_adapt=2/b_bias=0/direct=3/weightb=1/open_gop=0/weightp=2/keyint=infinite/keyint_min=29/scenecut=40/intra_refresh=0/rc_lookahead=50/rc=crf/mbtree=1/crf=20.0/qcomp=0.60/qpmin=5/qpmax=69/qpstep=4/vbv_maxrate=24200/vbv_bufsize=66000/crf_max=0.0/nal_hrd=none/filler=0/ip_ratio=1.40/aq=1: 1.00
    Default : Да
    Forced : Нет
    Цветовой диапазон : Limited
    Основные цвета : BT.709
    Характеристики трансфера : BT.709
    Коэффициенты матрицы : BT.709
    Аудио
    Идентификатор : 2
    Формат : AAC LC
    Формат/Информация : Advanced Audio Codec Low Complexity
    Идентификатор кодека : A_AAC-2
    Продолжительность : 3 м. 33 с.
    Битрейт : 256 Кбит/сек
    Каналы : 2 канала
    Channel layout : L R
    Частота : 48, 0 КГц
    Частота кадров : 46, 875 кадров/сек (1024 SPF)
    Метод сжатия : С потерями
    Размер потока : 6, 51 Мбайт (1%)
    Default : Да
    Forced : Нет
    Общее
    Уникальный идентификатор : 73174643727923101094927932872607037117 (0x370CEC7B0C04FECE255C2C855DFE76BD)
    Полное имя : F: КИНОНОРВЕГИЯНОРВЕГИЯ 02.mkv
    Формат : Matroska
    Версия формата : Version 4
    Размер файла : 799 Мбайт
    Продолжительность : 7 м. 3 с.
    Общий поток : 15, 8 Мбит/сек
    Дата кодирования : UTC 2019-02-26 12: 43: 46
    Программа кодирования : mkvmerge v31.0.0 (\'Dolores In A Shoestand\') 64-bit
    Библиотека кодирования : libebml v1.3.6 + libmatroska v1.4.9
    Видео
    Идентификатор : 1
    Формат : AVC
    Формат/Информация : Advanced Video Codec
    Профиль формата : High@L5.2
    Настройки формата : CABAC/5 Ref Frames
    Параметр CABAC формата : Да
    Параметр RefFrames формата : 5 кадров
    Идентификатор кодека : V_MPEG4/ISO/AVC
    Продолжительность : 7 м. 3 с.
    Битрейт : 15, 7 Мбит/сек
    Ширина : 3840 пикселей
    Высота : 2160 пикселей
    Соотношение сторон : 16: 9
    Режим частоты кадров : Постоянный
    Частота кадров : 29, 970 (30000/1001) кадров/сек
    Цветовое пространство : YUV
    Субдискретизация насыщенности : 4: 2: 0
    Битовая глубина : 8 бит
    Тип развёртки : Прогрессивная
    Бит/(Пиксели*Кадры) : 0.063
    Размер потока : 792 Мбайт (99%)
    Библиотека кодирования : x264 core 157 r10 545de2f
    Настройки программы : cabac=1/ref=5/deblock=1: 0: 0/analyse=0x3: 0x113/me=hex/subme=8/psy=1/psy_rd=1.00: 0.00/mixed_ref=1/me_range=16/chroma_me=1/trellis=2/8x8dct=1/cqm=0/deadzone=21, 11/fast_pskip=1/chroma_qp_offset=-2/threads=48/lookahead_threads=8/sliced_threads=0/nr=0/decimate=1/interlaced=0/bluray_compat=0/stitchable=1/constrained_intra=0/bframes=3/b_pyramid=2/b_adapt=2/b_bias=0/direct=3/weightb=1/open_gop=0/weightp=2/keyint=infinite/keyint_min=29/scenecut=40/intra_refresh=0/rc_lookahead=50/rc=crf/mbtree=1/crf=20.0/qcomp=0.60/qpmin=5/qpmax=69/qpstep=4/vbv_maxrate=24200/vbv_bufsize=66000/crf_max=0.0/nal_hrd=none/filler=0/ip_ratio=1.40/aq=1: 1.00
    Default : Да
    Forced : Нет
    Цветовой диапазон : Limited
    Основные цвета : BT.709
    Характеристики трансфера : BT.709
    Коэффициенты матрицы : BT.709
    Аудио
    Идентификатор : 2
    Формат : AAC LC
    Формат/Информация : Advanced Audio Codec Low Complexity
    Идентификатор кодека : A_AAC-2
    Продолжительность : 7 м. 3 с.
    Битрейт : 137 Кбит/сек
    Каналы : 2 канала
    Channel layout : L R
    Частота : 48, 0 КГц
    Частота кадров : 46, 875 кадров/сек (1024 SPF)
    Метод сжатия : С потерями
    Размер потока : 6, 91 Мбайт (1%)
    Default : Да
    Forced : Нет

    Скриншоты для ознакомления



    Все одноименные релизы в Клубе
    Время раздачи: с 18: 00 до 23: 00 (до появления первых 3-5 скачавших)


    Норвегия/Norway (2018) WEBRip [H.264/2160p] [4K, UHD] (2 части)
    Рейтинг →
     (голосов: 1, оценка 5/5, голосовать можно 1 раз )

    Другие торренты по теме:

  • Норвегия 3D: Дикая природа / Norway 3D (2013) HDTVRip [H.264 / 720p-LQ]
  • Северная Норвегия / Northern Norway (2018) WEBRip [H.264 / 2160p] [4K, HDR] [60fps]


    • Комментарии (0):

      Информация

      Информация

        Посетители, находящиеся в группе Гости, не могут оставлять комментарии в данной новости.

        ↓ Меню




        ↓ Опрос

        Вы добавили сайт в закладки?
        Да
        Нет


        Top 10 за месяц (Передачи)