.
Авторизация | Регистрация
Хочешь лучшие торренты? Добавь свой email!
Добавить

Торрент скачать бесплатно

  • support: webmaster@btracker.club
» » Над Нью-Йорком / Above NYC (2018) WEBRip [VP9 / 2160p] [4K, HDR] (2 фильма) торрент скачать бесплатно


    Над Нью-Йорком / Above NYC (2018) WEBRip [VP9 / 2160p] [4K, HDR] (2 фильма) торрент скачать бесплатно

    Опубликовал: fregat | Дата: 27-02-2019, 05:00 | .torrent скачали: 1

    Над Нью-Йорком / Above NYC (2018) WEBRip [VP9 / 2160p] [4K, HDR] (2 фильма)Производство: США
    Жанр: Документальный, видовой
    Режиссер: Фил Холланд

    Описание

    Последние несколько лет я специализируюсь на широкоформатной воздушной кинематографии с высоким разрешением. Я снял для вас длинный воздушный полёт, который ведёт нас от моря до Манхэттена.
    Продолжительность: 00: 05: 59+00: 03: 31
    Качество видео: WEBRip
    Перевод: Не требуется (нет диалогов и комментариев)
    Субтитры: отсутствуют
    Видео: VP9, 3840x2160, ~16, 9 Mbps; ~15, 9 Mbps
    Аудио: Vorbis, 2 ch, 128 Kbps

    Общее
    Уникальный идентификатор : 315435260406733227304998463762244164258 (0xED4E9F1102616375EBB17EE08949DAA2)
    Полное имя : F: КИНОНАД НЬЮ-ЙОРКОММАНХЭТТЕН.mkv
    Формат : Matroska
    Версия формата : Version 4
    Размер файла : 745 Мбайт
    Продолжительность : 5 м. 59 с.
    Режим общего битрейта : Переменный
    Общий поток : 17, 4 Мбит/сек
    Программа кодирования : Lavf56.40.101
    Библиотека кодирования : Lavf56.40.101
    Видео
    Идентификатор : 1
    Формат : VP9
    Идентификатор кодека : V_VP9
    Битрейт : 16, 9 Мбит/сек
    Ширина : 3840 пикселей
    Высота : 2160 пикселей
    Соотношение сторон : 16: 9
    Режим частоты кадров : Переменный
    Default : Да
    Forced : Нет
    DURATION : 00: 05: 59, 442000000
    Аудио
    Идентификатор : 2
    Формат : Vorbis
    Параметр Floor формата : 1
    Идентификатор кодека : A_VORBIS
    Продолжительность : 5 м. 59 с.
    Вид битрейта : Переменный
    Битрейт : 128 Кбит/сек
    Каналы : 2 канала
    Частота : 44, 1 КГц
    Метод сжатия : С потерями
    Размер потока : 5, 48 Мбайт (1%)
    Программа кодирования : Google
    Default : Да
    Forced : Нет
    DURATION : 00: 05: 59, 455000000
    Общее
    Уникальный идентификатор : 280717115682887765793545980606384817236 (0xD330265FD1723BDB921C739B71B5C454)
    Полное имя : F: КИНОНАД НЬЮ-ЙОРКОМНАД НЬЮ-ЙОРКОМ.mkv
    Формат : Matroska
    Версия формата : Version 4
    Размер файла : 412 Мбайт
    Продолжительность : 3 м. 31 с.
    Режим общего битрейта : Переменный
    Общий поток : 16, 3 Мбит/сек
    Программа кодирования : Lavf56.40.101
    Библиотека кодирования : Lavf56.40.101
    Видео
    Идентификатор : 1
    Формат : VP9
    Идентификатор кодека : V_VP9
    Продолжительность : 3 м. 31 с.
    Битрейт : 15, 9 Мбит/сек
    Ширина : 3840 пикселей
    Высота : 2160 пикселей
    Соотношение сторон : 16: 9
    Режим частоты кадров : Постоянный
    Частота кадров : 23, 976 (24000/1001) кадра/сек
    Бит/(Пиксели*Кадры) : 0.080
    Размер потока : 400 Мбайт (97%)
    Default : Да
    Forced : Нет
    DURATION : 00: 03: 31, 753000000
    Аудио
    Идентификатор : 2
    Формат : Vorbis
    Параметр Floor формата : 1
    Идентификатор кодека : A_VORBIS
    Продолжительность : 3 м. 31 с.
    Вид битрейта : Переменный
    Битрейт : 128 Кбит/сек
    Каналы : 2 канала
    Частота : 44, 1 КГц
    Метод сжатия : С потерями
    Размер потока : 3, 23 Мбайт (1%)
    Программа кодирования : Google
    Default : Да
    Forced : Нет
    DURATION : 00: 03: 31, 762000000


    Над Нью-Йорком/Above NYC (2018) WEBRip [VP9/2160p] [4K, HDR] (2 фильма)
    Рейтинг →
     (голосов: 1, оценка 5/5, голосовать можно 1 раз )

    Другие торренты по теме:



      Комментарии (0):

      Информация

      Информация

        Посетители, находящиеся в группе Гости, не могут оставлять комментарии в данной новости.

        ↓ Меню




        ↓ Опрос

        Вы добавили сайт в закладки?
        Да
        Нет


        Top 10 за месяц (Передачи)