.
Авторизация | Регистрация
Хочешь лучшие торренты? Добавь свой email!
Добавить

Торрент скачать бесплатно

  • support: webmaster@btracker.club
» » Цвета Аргентины / Colors of Argentina (2018) WEB-DL [H.264 / 2160p] [4K, UHD] [50fps] торрент скачать бесплатно


    Цвета Аргентины / Colors of Argentina (2018) WEB-DL [H.264 / 2160p] [4K, UHD] [50fps] торрент скачать бесплатно

    Опубликовал: fregat | Дата: 27-02-2019, 05:00 | .torrent скачали: 2

    Цвета Аргентины / Colors of Argentina (2018) WEB-DL [H.264 / 2160p] [4K, UHD] [50fps]Производство: Аргентина
    Жанр: Документальный, видовой
    Режиссер: Джим Винтер

    Описание

    Природа Аргентины обладает большим разнообразием - от высокогорных Анд до обширных равнин, от субтропических лесов до ледников. Разнообразие, которым обладает природа этого государства, обусловлено большой территорией с разнообразным рельефом. Здешние пейзажи, флора и фауна привлекает туристов со всего мира. Аргентинская республика расположена на юго-западе Латинской Америки. На востоке страна омывается водами Атлантического океана. На юге находится остров Огненная Земля.
    Продолжительность: 00: 04: 24
    Качество видео: WEBRip
    Перевод: Не требуется (нет диалогов и комментариев)
    Субтитры: отсутствуют
    Видео: AVC/H.264, 2976x1674, ~79, 7 Mbps, 50fps
    Аудио: AAC, 2 ch, 317 Kbps

    Общее
    Уникальный идентификатор : 272019447169513803207482860166946006924 (0xCCA50A354F4E60BBEDEEC4D9A9BCA78C)
    Полное имя : F: КИНОЦВЕТА АРГЕНТИНЫ.mkv
    Формат : Matroska
    Версия формата : Version 4
    Размер файла : 2, 46 Гбайт
    Продолжительность : 4 м. 24 с.
    Режим общего битрейта : Переменный
    Общий поток : 80, 0 Мбит/сек
    Дата кодирования : UTC 2019-02-26 17: 10: 11
    Программа кодирования : mkvmerge v31.0.0 (\'Dolores In A Shoestand\') 64-bit
    Библиотека кодирования : libebml v1.3.6 + libmatroska v1.4.9
    Видео
    Идентификатор : 1
    Формат : AVC
    Формат/Информация : Advanced Video Codec
    Профиль формата : High@L5.1
    Настройки формата : CABAC/2 Ref Frames
    Параметр CABAC формата : Да
    Параметр RefFrames формата : 2 кадра
    Идентификатор кодека : V_MPEG4/ISO/AVC
    Продолжительность : 4 м. 24 с.
    Вид битрейта : Переменный
    Битрейт : 79, 7 Мбит/сек
    Максимальный битрейт : 768 Кбит/сек
    Ширина : 2976 пикселей
    Высота : 1674 пикселя
    Соотношение сторон : 16: 9
    Режим частоты кадров : Постоянный
    Частота кадров : 50, 000 кадров/сек
    Цветовое пространство : YUV
    Субдискретизация насыщенности : 4: 2: 0
    Битовая глубина : 8 бит
    Тип развёртки : Прогрессивная
    Бит/(Пиксели*Кадры) : 0.320
    Размер потока : 2, 45 Гбайт (100%)
    Язык : English
    Default : Да
    Forced : Нет
    Цветовой диапазон : Limited
    Основные цвета : BT.709
    Характеристики трансфера : BT.709
    Коэффициенты матрицы : BT.709
    Аудио
    Идентификатор : 2
    Формат : AAC LC
    Формат/Информация : Advanced Audio Codec Low Complexity
    Идентификатор кодека : A_AAC-2
    Продолжительность : 4 м. 24 с.
    Битрейт : 317 Кбит/сек
    Каналы : 2 канала
    Channel layout : L R
    Частота : 48, 0 КГц
    Частота кадров : 46, 875 кадров/сек (1024 SPF)
    Метод сжатия : С потерями
    Размер потока : 10, 0 Мбайт (0%)
    Язык : English
    Default : Да
    Forced : Нет

    Скриншоты для ознакомления



    Все одноименные релизы в Клубе
    Время раздачи: с 18: 00 до 23: 00 (до появления первых 3-5 скачавших)


    Цвета Аргентины/Colors of Argentina (2018) WEB-DL [H.264/2160p] [4K, UHD] [50fps]
    Рейтинг →
     (голосов: 1, оценка 3/5, голосовать можно 1 раз )

    Другие торренты по теме:

  • Джинн Доби | Песня цвета. Уроки цвета и композиции (2017) [PDF]
  • Ричард Кайас | Теория цвета. Как работает цвет (2008) PCRec [H.264]
  • Игорь Марченко | Тёмная планета. Книга 1. Глаза цвета стали (2015) [m4b|AAC] скачать через торрент бесплатно
  • Истинные цвета / True Colors (1991) WEB-DL [H.264 / 720p-LQ] скачать через торрент бесплатно
  • Ирина Калмыкова | Урок №6. Гармония цвета (2015) PCRec [H.264] скачать через торрент бесплатно
  • Цвета / Colors (1988) BDRip [H.264 / 720p] скачать через торрент бесплатно
  • Цвета / Colors (1988) BDRip [H.264 / 1080p] скачать через торрент бесплатно
  • Ame-iro Cocoa: Rainy Color e Youkoso / Какао цвета дождя [ТВ-2] [2015, TV, 1 из 12] HDTV 720p Raw скачать через торрент бесплатно


    • Комментарии (0):

      Информация

      Информация

        Посетители, находящиеся в группе Гости, не могут оставлять комментарии в данной новости.

        ↓ Меню




        ↓ Опрос

        Вы добавили сайт в закладки?
        Да
        Нет


        Top 10 за месяц (Передачи)