.
Авторизация | Регистрация

Торрент скачать бесплатно

  • support: webmaster@btracker.club
» » В поисках Элизиума / In Search of Elysium (2018) WEB-DL [H.264 / 2160p] [4K, UHD] торрент скачать бесплатно


    В поисках Элизиума / In Search of Elysium (2018) WEB-DL [H.264 / 2160p] [4K, UHD] торрент скачать бесплатно

    Дата: 27-02-2019, 05:00 | .torrent скачали: 1

    В поисках Элизиума / In Search of Elysium (2018) WEB-DL [H.264 / 2160p] [4K, UHD]Производство: ОАЭ
    Жанр: Документальный, видовой
    Режиссер: Гадир Чар

    Описание

    Воздушный короткометражный фильм о разных местах вокруг ОАЭ. Я потратил 10 месяцев на этот проект, путешествуя по стране в поисках идеального места восхода и заката.
    ОАЭ славится своими высокими небоскрёбами и яркими красивыми городами, но я чувствую, что люди в стране и по всему миру не видят и не знают много о природе и ландшафте. Цель этого фильма - показать ОАЭ с новой точки зрения и показать разнообразие страны - от огромных первозданных пустынь, до оживленных многолюдных городов ..
    Продолжительность: 00: 04: 19
    Качество видео: WEB-DL
    Перевод: Не требуется (нет диалогов и комментариев)
    Субтитры: отсутствуют
    Видео: AVC/H.264, 3840x2160, ~29, 2 Mbps
    Аудио: AAC, 2 ch, 126 Kbps

    Общее
    Уникальный идентификатор : 332662151046570451965706874157090745623 (0xFA446659B7C5F67E972486EC14202D17)
    Полное имя : F: КИНОВ ПОИСКАХ ЭЛИЗИУМА.mkv
    Формат : Matroska
    Версия формата : Version 4
    Размер файла : 905 Мбайт
    Продолжительность : 4 м. 19 с.
    Режим общего битрейта : Переменный
    Общий поток : 29, 3 Мбит/сек
    Дата кодирования : UTC 2019-02-26 16: 15: 25
    Программа кодирования : mkvmerge v31.0.0 (\'Dolores In A Shoestand\') 64-bit
    Библиотека кодирования : libebml v1.3.6 + libmatroska v1.4.9
    Видео
    Идентификатор : 2
    Формат : AVC
    Формат/Информация : Advanced Video Codec
    Профиль формата : High@L5.1
    Настройки формата : CABAC/2 Ref Frames
    Параметр CABAC формата : Да
    Параметр RefFrames формата : 2 кадра
    Параметр GOP формата : M=1, N=30
    Идентификатор кодека : V_MPEG4/ISO/AVC
    Продолжительность : 4 м. 19 с.
    Вид битрейта : Переменный
    Битрейт : 29, 2 Мбит/сек
    Максимальный битрейт : 768 Кбит/сек
    Ширина : 3840 пикселей
    Высота : 2160 пикселей
    Соотношение сторон : 16: 9
    Режим частоты кадров : Постоянный
    Частота кадров : 30, 000 кадров/сек
    Цветовое пространство : YUV
    Субдискретизация насыщенности : 4: 2: 0
    Битовая глубина : 8 бит
    Тип развёртки : Прогрессивная
    Бит/(Пиксели*Кадры) : 0.117
    Размер потока : 901 Мбайт (100%)
    Default : Да
    Forced : Нет
    Цветовой диапазон : Limited
    Основные цвета : BT.709
    Характеристики трансфера : BT.709
    Коэффициенты матрицы : BT.709
    Аудио
    Идентификатор : 1
    Формат : AAC LC
    Формат/Информация : Advanced Audio Codec Low Complexity
    Идентификатор кодека : A_AAC-2
    Продолжительность : 4 м. 19 с.
    Битрейт : 126 Кбит/сек
    Каналы : 2 канала
    Channel layout : L R
    Частота : 48, 0 КГц
    Частота кадров : 46, 875 кадров/сек (1024 SPF)
    Метод сжатия : С потерями
    Размер потока : 3, 89 Мбайт (0%)
    Язык : English
    Default : Да
    Forced : Нет

    Скриншоты для ознакомления



    Все одноименные релизы в Клубе
    Время раздачи: с 18: 00 до 23: 00 (до появления первых 3-5 скачавших)


    В поисках Элизиума/In Search of Elysium (2018) WEB-DL [H.264/2160p] [4K, UHD]
    Рейтинг →
     (голосов: 1, оценка 4/5, голосовать можно 1 раз )

    Другие торренты по теме:

  • Форт Росс: В поисках приключений (2014) WEBRip [H.264 / 720p-LQ]
  • Форт Росс: В поисках приключений (2014) WEBRip
  • Форт Росс: В поисках приключений (2014) WEBRip
  • Охотники за сокровищами. Фильм 4: В поисках утраченного (2014) SATRip скачать через торрент бесплатно
  • Ushinawareta Mirai wo Motomete | Waremete | In Search of Lost Future | В поисках потерянного будущего [2014, TV, 1 из 12] HDTV 720p raw скачать через торрент бесплатно
  • М. И. Рижский | Книга Экклезиаста: В поисках смысла жизни (1995) [PDF]
  • NG. В поисках правды / The Truth Behind (2011) BDRip [H.264 / 720p] (Сезон 1, 1-5 серия из 5) скачать через торрент бесплатно
  • В поисках Картер / Finding Carter (2014) HDTVRip (сезон 1, серии 1-9 из 12) GALA Voices (обновляемая) скачать через торрент бесплатно


    • Комментарии (0):

      Информация

      Информация

        Посетители, находящиеся в группе Гости, не могут оставлять комментарии в данной новости.

        ↓ Меню




        ↓ Опрос

        Вы добавили сайт в закладки?
        Да
        Нет


        Top 10 за месяц (Передачи)