.
Авторизация | Регистрация
Хочешь лучшие торренты? Добавь свой email!
Добавить

Торрент скачать бесплатно

  • support: webmaster@btracker.club
» » КВН-2019. Высшая лига. 1.8 финала. Игра 1 (2019.02.24) WEB-DL [H.264 / 1080p-LQ] торрент скачать бесплатно


    КВН-2019. Высшая лига. 1.8 финала. Игра 1 (2019.02.24) WEB-DL [H.264 / 1080p-LQ] торрент скачать бесплатно

    Опубликовал: fregat | Дата: 26-02-2019, 05:00 | .torrent скачали: 0

    КВН-2019. Высшая лига. 1.8 финала. Игра 1 (2019.02.24) WEB-DL [H.264 / 1080p-LQ]Телекомпания: Первый канал
    Жанр: Юмор
    Ведущий: Александр Масляков

    Описание

    Что такое КВН, знают, без сомнения, все. В КВН играют во всем мире, это прежде всего молодежная игра. Постоянные конкурсные задания: Визитная карточка, Разминка, Конкурс капитанов, Музыкальный конкурс, Домашнее задание. Игру команд оценивает профессиональное жюри — люди, у которых с чувством юмора все в порядке, многие из них раньше сами играли в КВН. Среди членов жюри были Константин Эрнст, Леонид Парфенов, Юлий Гусман, Леонид Ярмольник, Валдис Пельш, Сергей Шолохов, Геннадий Хазанов и другие. Кроме самих игр проводятся ежегодные встречи: фестиваль команд КВН (с 1990 г., семь раз фестиваль проходил в г.Сочи), музыкальный фестиваль КВН, летний кубок КВН, международные товарищеские игры в КВН. Сборная КВН играет со сборными других стран. Уже состоялись игры между сборной КВН и сборными Америки, Австралии, Израиля... Игра в КВН для многих становится профессией, а многие благодаря игре связывают жизнь с искусством. Из КВН вышли: Леонид Якубович, Михаил Марфин, Татьяна Лазарева, Олег Филимонов, Юлий Гусман и многие другие.
    Релиз от: Алехаndr
    Продолжительность: 01: 38: 29
    Качество видео: WEB-DL
    Субтитры: Отсутствуют
    Видео: AVC/H.264, 1920x1080 (16: 9), ~4370 Kbps
    Аудио: AC3, 2 ch, 192 Kbps

    Общее
    Уникальный идентификатор : 118059089503441098016431461759039236549 (0x58D15A8371AD20989D39CD4D3232E9C5)
    Полное имя : D: 1КВН 2019. Высшая Лига Первая 1.8 (24.02.2019).by.Алехаndr.mkv
    Формат : Matroska
    Версия формата : Version 4
    Размер файла : 3, 14 Гбайт
    Продолжительность : 1 ч. 38 м.
    Общий поток : 4561 Кбит/сек
    Дата кодирования : UTC 2019-02-25 05: 47: 41
    Программа кодирования : mkvmerge v31.0.0 (\'Dolores In A Shoestand\') 64-bit
    Библиотека кодирования : libebml v1.3.6 + libmatroska v1.4.9/Lavf57.71.100
    Видео
    Идентификатор : 1
    Формат : AVC
    Формат/Информация : Advanced Video Codec
    Профиль формата : High@L4
    Настройки формата : CABAC/3 Ref Frames
    Параметр CABAC формата : Да
    Параметр RefFrames формата : 3 кадра
    Идентификатор кодека : V_MPEG4/ISO/AVC
    Продолжительность : 1 ч. 38 м.
    Битрейт : 4368 Кбит/сек
    Ширина : 1920 пикселей
    Высота : 1080 пикселей
    Соотношение сторон : 16: 9
    Режим частоты кадров : Постоянный
    Частота кадров : 25, 000 кадров/сек
    Цветовое пространство : YUV
    Субдискретизация насыщенности : 4: 2: 0
    Битовая глубина : 8 бит
    Тип развёртки : Прогрессивная
    Бит/(Пиксели*Кадры) : 0.084
    Размер потока : 3, 00 Гбайт (96%)
    Default : Да
    Forced : Нет
    Цветовой диапазон : Limited
    Основные цвета : BT.709
    Характеристики трансфера : BT.709
    Коэффициенты матрицы : BT.709
    Аудио
    Идентификатор : 2
    Формат : AC-3
    Формат/Информация : Audio Coding 3
    Коммерческое название : Dolby Digital
    Идентификатор кодека : A_AC3
    Продолжительность : 1 ч. 38 м.
    Вид битрейта : Постоянный
    Битрейт : 192 Кбит/сек
    Каналы : 2 канала
    Channel layout : L R
    Частота : 48, 0 КГц
    Частота кадров : 31, 250 кадров/сек (1536 SPF)
    Битовая глубина : 16 бит
    Метод сжатия : С потерями
    Размер потока : 135 Мбайт (4%)
    ServiceKind/String : Complete Main
    Default : Да
    Forced : Нет


    КВН-2019. Высшая лига. 1.8 финала. Игра 1 (2019.02.24) WEB-DL [H.264/1080p-LQ]
    Рейтинг →
     (голосов: 1, оценка 5/5, голосовать можно 1 раз )

    Другие торренты по теме:

  • КВН-2019. Высшая лига. 1.8 финала. Игра 3 (2019.03.17) WEB-DL [H.264 / 1080p-LQ]
  • КВН-2015. Высшая лига. КВН на Красной поляне. Старт сезона (2015.02.08) HDTVRip [H.264 / 720p] скачать через торрент бесплатно
  • КВН-2016. Высшая лига. КВН на Красной поляне. Старт сезона (2016.02.22) SATRip
  • КВН-2016. Высшая лига. КВН на Красной поляне. Старт сезона (2016.02.22) WEB-DL [H.264 / 720i-LQ]
  • КВН-2016. Высшая лига. КВН на Красной поляне. Старт сезона (2016.02.22) HDTV [H.264 / 1080i-LQ]
  • КВН-2016. Высшая лига. КВН на Красной поляне. Старт сезона (2016.02.22) HDTVRip
  • КВН-2014. Высшая лига. 1 / 2 финала. Первая игра (2014.10.05) SATRip скачать через торрент бесплатно
  • КВН-2014. Высшая лига. 1 / 2 финала. Первая игра (2014.10.05) HDTVRip [H.264 / 720p-LQ]


    • Комментарии (0):

      Информация

      Информация

        Посетители, находящиеся в группе Гости, не могут оставлять комментарии в данной новости.

        ↓ Меню




        ↓ Опрос

        Вы добавили сайт в закладки?
        Да
        Нет


        Top 10 за месяц (Передачи)