.
Авторизация | Регистрация

Торрент скачать бесплатно

  • support: webmaster@btracker.club
» » Смешанные единоборства. UFC Fight Night 145: Full Event. Blachowicz vs. Santos (23.02.2019) WEB-DLRip [H.264 / 720p-LQ] [EN] торрент скачать бесплатно


    Смешанные единоборства. UFC Fight Night 145: Full Event. Blachowicz vs. Santos (23.02.2019) WEB-DLRip [H.264 / 720p-LQ] [EN] торрент скачать бесплатно

    Дата: 26-02-2019, 05:00 | .torrent скачали: 0

    Смешанные единоборства. UFC Fight Night 145: Full Event. Blachowicz vs. Santos (23.02.2019) WEB-DLRip [H.264 / 720p-LQ] [EN]Телекомпания: UFC Fight Pass
    Жанр: Спорт, Единоборства
    Кард:
    Основной: Ян Блахович – Тиаго Сантос, Маркос Роджерио де Лима – Стефан Струв, Михал Олексийчук – Джиан Вилланте, Лиз Кармуш – Люси Пудилова, Петр Ян – Джон Додсон, Магомед Анкалаев – Клидсон Абреу
    Предварительный: Дуайт Грант – Карло Педерсоли, Крис Фишголд – Даниэль Теймур, Вероника Маседо – Джиллиан Робертсон, Дамир Хадзович – Марко Поло Рейес, Исмаил Наурдиев – Мишель Празерес, Рустам Хабилов – Карлос Диего Феррейра, Йоэль Альварес – Дамир Исмагулов

    Описание
    Все бои турнира UFC Fight Night Prague, главным событием которого стал поединок в полутяжелом весе между Яном Блаховичем и Тиаго Сантосом.
    Релиз от: Fight-BB, KOENiG
    Продолжительность: 02: 52: 58 - 02: 57: 56
    Качество видео: WEB-DLRip
    Перевод: отсутствует
    Язык озвучки: Английский
    Субтитры: отсутствуют
    Видео: AVC/H.264, 1280x720 (16: 9), ~ 4142 Kbps, 29.97 fps
    Аудио: AAC, 44.1 kHz, 2 ch, ~129 Kbps

    Unique ID : 142098598884026217057476672730333215468 (0x6AE731D58A67C7EF27B0EE6592847AEC)
    Complete name : E: UFC.Fight.Night.145UFC.Fight.Night.145.720p.Fight-BB.mkv
    Format : Matroska
    Format version : Version 4
    File size : 5.31 GiB
    Duration : 2 h 57 min
    Overall bit rate : 4 274 kb/s
    Writing application : mkvmerge v30.1.0 (\'Forever And More\') 64-bit
    Writing library : libebml v1.3.6 + libmatroska v1.4.9
    Video
    ID : 1
    Format : AVC
    Format/Info : Advanced Video Codec
    Format profile : Main@L4
    Format settings : CABAC/3 Ref Frames
    Format settings, CABAC : Yes
    Format settings, ReFrames : 3 frames
    Codec ID : V_MPEG4/ISO/AVC
    Duration : 2 h 57 min
    Bit rate : 4 142 kb/s
    Width : 1 280 pixels
    Height : 720 pixels
    Display aspect ratio : 16: 9
    Frame rate mode : Variable
    Frame rate : 29.918 FPS
    Original frame rate : 29.970 (29970/1000) FPS
    Color space : YUV
    Chroma subsampling : 4: 2: 0
    Bit depth : 8 bits
    Scan type : Progressive
    Bits/(Pixel*Frame) : 0.150
    Stream size : 5.15 GiB (97%)
    Default : Yes
    Forced : No
    Audio
    ID : 2
    Format : AAC LC
    Format/Info : Advanced Audio Codec Low Complexity
    Codec ID : A_AAC-2
    Duration : 2 h 57 min
    Bit rate : 129 kb/s
    Channel(s) : 2 channels
    Channel layout : L R
    Sampling rate : 44.1 kHz
    Frame rate : 43.066 FPS (1024 SPF)
    Compression mode : Lossy
    Delay relative to video : -33 ms
    Stream size : 165 MiB (3%)
    Default : Yes
    Forced : No

    Unique ID : 247342669697573126261964059796730257964 (0xBA147725141BBC29F9247E7E7F0BA22C)
    Complete name : E: UFC.Fight.Night.145UFC.Fight.Night.145.Prelims.720p.KOENiG.mkv
    Format : Matroska
    Format version : Version 4
    File size : 5.25 GiB
    Duration : 2 h 52 min
    Overall bit rate : 4 342 kb/s
    Encoded date : UTC 2019-02-24 09: 23: 43
    Writing application : mkvmerge v31.0.0 (\'Dolores In A Shoestand\') 64-bit
    Writing library : libebml v1.3.6 + libmatroska v1.4.9
    Video
    ID : 1
    Format : AVC
    Format/Info : Advanced Video Codec
    Format profile : Main@L4
    Format settings : CABAC/3 Ref Frames
    Format settings, CABAC : Yes
    Format settings, ReFrames : 3 frames
    Codec ID : V_MPEG4/ISO/AVC
    Duration : 2 h 52 min
    Width : 1 280 pixels
    Height : 720 pixels
    Display aspect ratio : 16: 9
    Frame rate mode : Constant
    Frame rate : 29.970 (29970/1000) FPS
    Color space : YUV
    Chroma subsampling : 4: 2: 0
    Bit depth : 8 bits
    Scan type : Progressive
    Default : No
    Forced : No
    Audio
    ID : 2
    Format : AAC LC
    Format/Info : Advanced Audio Codec Low Complexity
    Codec ID : A_AAC-2
    Duration : 2 h 52 min
    Channel(s) : 2 channels
    Channel layout : L R
    Sampling rate : 44.1 kHz
    Frame rate : 43.066 FPS (1024 SPF)
    Compression mode : Lossy
    Language : English
    Default : Yes
    Forced : No

    Скриншоты для ознакомления



    Все одноименные релизы в Клубе
    Время раздачи: 24/7 (до появления первых 3-5 скачавших)


    Смешанные единоборства. UFC Fight Night 145: Full Event. Blachowicz vs. Santos (23.02.2019) WEB-DLRip [H.264/720p-LQ] [EN]
    Рейтинг →
     (голосов: 1, оценка 4/5, голосовать можно 1 раз )

    Другие торренты по теме:

  • Смешанные единоборства. UFC Fight Night 152: Рафаэль Дос Аньос - Кевин Ли / UFC Fight Night 152: Dos Anjos vs. Lee (18.05.2019) HDTVRip [H.264 / 1080p-LQ]
  • Смешанные единоборства. Rizin FF 1. (29.12.2015) HDTVRip [H.264 / 720p-LQ] скачать через торрент бесплатно
  • Смешанные единоборства. Rizin FF 1. (31.12.2015) HDTVRip [H.264 / 720p-LQ] скачать через торрент бесплатно
  • Смешанные единоборства. UFC on Fox 18 / Johnson vs Bader + Main Card. (30.01.2016) HDTVRip [H.264 / 720p-LQ]
  • Смешанные единоборства. UFC Fight Night 82: Hendricks vs. Thompson. (06.02.2016) WEB-DL [H.264 / 720p-LQ] [EN]
  • Смешанные единоборства. UFC Fight Night 83: Cowboy vs. Cowboy. (21.02.2016) WEB-DL [H.264 / 720p-LQ] [EN]
  • Смешанные единоборства. Bellator 150. Kongo vs. Queiroz. Main card. (26.02.2016) HDTVRip [H.264 / 720p-LQ]
  • Смешанные единоборства. Fight Nights Global 44. (26.02.2016) HDTVRip [H.264 / 720p-LQ]


    • Комментарии (0):

      Информация

      Информация

        Посетители, находящиеся в группе Гости, не могут оставлять комментарии в данной новости.

        ↓ Меню




        ↓ Опрос

        Вы добавили сайт в закладки?
        Да
        Нет


        Top 10 за месяц (Передачи)