.
Авторизация | Регистрация

Торрент скачать бесплатно

  • support: webmaster@btracker.club
» » Чемпионат мира по лыжным видам спорта 2019. Зеефельд (Австрия). Лыжные гонки. Мужчины. 10 км. Классический стиль. Квалификация (2019) WEB-DL [H.264 / 720p-LQ] торрент скачать бесплатно


    Чемпионат мира по лыжным видам спорта 2019. Зеефельд (Австрия). Лыжные гонки. Мужчины. 10 км. Классический стиль. Квалификация (2019) WEB-DL [H.264 / 720p-LQ] торрент скачать бесплатно

    Дата: 26-02-2019, 05:00 | .torrent скачали: 0

    Чемпионат мира по лыжным видам спорта 2019. Зеефельд (Австрия). Лыжные гонки. Мужчины. 10 км. Классический стиль. Квалификация (2019) WEB-DL [H.264 / 720p-LQ]Телекомпания: Матч! Арена HD
    Жанр: Спорт
    Комментатор: Тарас Тимошенко

    Описание
    20 февраля 2019 года, среда. 16: 00 МСК
    Чемпионат мира по лыжным видам спорта 2019. Зеефельд (Австрия)
    Лыжные гонки.
    Мужчины. Гонка 10 км. Классический стиль. Квалификация
    Стадион: Тони Зелос (Зеефельд-ин-Тироль, Австрия)
    Продолжительность: 01: 02: 10
    Качество видео: WEB-DL
    Язык озвучки: Русский
    Субтитры: отсутствуют
    Видео: AVC/H.264, 1280x720 (16: 9), ~3786 Kbps
    Аудио: AAC, 2 ch, 128 Kbps

    Общее
    Уникальный идентификатор : 65531774141183552079617034082946544363 (0x314CF5EAB74EDEA4773CE3C8C03272EB)
    Полное имя : F: SPORTFIS Nordic World Ski Championships 2019. Seefeld (AUS)Cross-countryFIS Nordic Ski WCh 2019.Seefeld(AUS).Cross-Country. Men 10 km Classic. Qualification 20.02.2019.mkv
    Формат : Matroska
    Версия формата : Version 4
    Размер файла : 1, 70 Гбайт
    Продолжительность : 1 ч. 2 м.
    Общий поток : 3916 Кбит/сек
    Дата кодирования : UTC 2019-02-23 03: 59: 04
    Программа кодирования : mkvmerge v31.0.0 (\'Dolores In A Shoestand\') 64-bit
    Библиотека кодирования : libebml v1.3.6 + libmatroska v1.4.9
    Видео
    Идентификатор : 1
    Формат : AVC
    Формат/Информация : Advanced Video Codec
    Профиль формата : Baseline@L3.1
    Настройки формата : 3 Ref Frames
    Параметр CABAC формата : Нет
    Параметр RefFrames формата : 3 кадра
    Параметр GOP формата : M=1, N=25
    Идентификатор кодека : V_MPEG4/ISO/AVC
    Продолжительность : 1 ч. 2 м.
    Битрейт : 3786 Кбит/сек
    Ширина : 1280 пикселей
    Высота : 720 пикселей
    Соотношение сторон : 16: 9
    Режим частоты кадров : Постоянный
    Частота кадров : 25, 000 кадров/сек
    Цветовое пространство : YUV
    Субдискретизация насыщенности : 4: 2: 0
    Битовая глубина : 8 бит
    Тип развёртки : Прогрессивная
    Бит/(Пиксели*Кадры) : 0.164
    Размер потока : 1, 64 Гбайт (97%)
    Default : Да
    Forced : Нет
    Аудио
    Идентификатор : 2
    Формат : AAC LC
    Формат/Информация : Advanced Audio Codec Low Complexity
    Идентификатор кодека : A_AAC-2
    Продолжительность : 1 ч. 2 м.
    Битрейт : 128 Кбит/сек
    Каналы : 2 канала
    Channel layout : L R
    Частота : 44, 1 КГц
    Частота кадров : 43, 066 кадра/сек (1024 SPF)
    Метод сжатия : С потерями
    Размер потока : 56, 9 Мбайт (3%)
    Язык : Russian
    Default : Да
    Forced : Нет

    Скриншоты для ознакомления



    Все одноименные релизы в Клубе
    Время раздачи: 24/7 (около 1 месяца)


    Чемпионат мира по лыжным видам спорта 2019. Зеефельд (Австрия). Лыжные гонки. Мужчины. 10 км. Классический стиль. Квалификация (2019) WEB-DL [H.264/720p-LQ]
    Рейтинг →
     (голосов: 1, оценка 3/5, голосовать можно 1 раз )

    Другие торренты по теме:

  • Хоккей. Чемпионат Мира 2019. Группа B. Швейцария — Россия (19.05.2019) HDTV [H.264 / 1080i-LQ]
  • Хоккей. Чемпионат Мира 2019. Группа B. Швеция — Швейцария (18.05.2019) HDTVRip [H.264 / 720p-LQ] [hand made 50fps]
  • Хоккей. Чемпионат Мира 2019. Группа A. Великобритания — Словакия (18.05.2019) HDTVRip [H.264 / 720p-LQ] [hand made 50fps]
  • Хоккей. Чемпионат Мира 2019. Группа B. Италия — Норвегия (18.05.2019) HDTVRip [H.264 / 720p-LQ]
  • Хоккей. Чемпионат Мира 2019. Группа A. Канада — Германия (18.05.2019) HDTVRip [H.264 / 720p-LQ] [hand made 50fps]
  • Хоккей. Чемпионат Мира 2019. Группа B. Латвия — Россия (18.05.2019) HDTVRip [H.264 / 720p-LQ] [hand made 50fps]
  • Хоккей. Чемпионат Мира 2019. Группа A. Дания — США (18.05.2019) WEB-DL [H.264 / 720p-LQ]
  • Хоккей. Чемпионат Мира 2019. Предварительный раунд. Группа B. Швейцария — Россия (19.05.2019) HDTVRip [H.264 / 720p-LQ] [hand made 50fps]


    • Комментарии (0):

      Информация

      Информация

        Посетители, находящиеся в группе Гости, не могут оставлять комментарии в данной новости.

        ↓ Меню




        ↓ Опрос

        Вы добавили сайт в закладки?
        Да
        Нет


        Top 10 за месяц (Передачи)