.
Авторизация | Регистрация
Хочешь лучшие торренты? Добавь свой email!
Добавить

Торрент скачать бесплатно

  • support: webmaster@btracker.club
» » Чемпионат мира по лыжным видам спорта 2019. Зеефельд (Австрия). Лыжные гонки. Спринт. Свободный стиль. Квалификация (2019) HDTVRip [H.264 / 720p-LQ] [hand made 50fps] торрент скачать бесплатно


    Чемпионат мира по лыжным видам спорта 2019. Зеефельд (Австрия). Лыжные гонки. Спринт. Свободный стиль. Квалификация (2019) HDTVRip [H.264 / 720p-LQ] [hand made 50fps] торрент скачать бесплатно

    Опубликовал: fregat | Дата: 26-02-2019, 05:00 | .torrent скачали: 0

    Чемпионат мира по лыжным видам спорта 2019. Зеефельд (Австрия). Лыжные гонки. Спринт. Свободный стиль. Квалификация (2019) HDTVRip [H.264 / 720p-LQ] [hand made 50fps]Телекомпания: Матч! Арена HD
    Жанр: Спорт
    Комментатор: Дмитрий Губерниев

    Описание
    21 февраля 2019 года, четверг. 14: 00 МСК
    Чемпионат мира по лыжным видам спорта 2019. Зеефельд (Австрия)
    Лыжные гонки. Спринт
    Женщины, Мужчины. Свободный стиль. Квалификация
    Стадион: Тони Зелос (Зеефельд-ин-Тироль, Австрия)
    Продолжительность: 01: 36: 33
    Качество видео: HDTVRip
    Язык озвучки: Русский
    Субтитры: отсутствуют
    Видео: AVC/H.264, 1280x720 (16: 9), ~3205 Kbps, 50 fps
    Аудио: AC3, 2 ch, 48 kHz, 128 Kbps

    Общее
    Уникальный идентификатор : 257833401034601480387772506506135967268 (0xC1F8E8222E90178D6AFF3BA88E159624)
    Полное имя : F: SPORTFIS Nordic World Ski Championships 2019. Seefeld (AUS)Cross-countryFIS Nordic Ski WCh 2019.Seefeld(AUS).Cross-Country. Sprint Free. Qualification 21.02.2019.mkv
    Формат : Matroska
    Версия формата : Version 4
    Размер файла : 2, 29 Гбайт
    Продолжительность : 1 ч. 36 м.
    Общий поток : 3400 Кбит/сек
    Программа кодирования : Lavf58.10.100
    Библиотека кодирования : Lavf58.10.100
    ErrorDetectionType : Per level 1
    Видео
    Идентификатор : 1
    Формат : AVC
    Формат/Информация : Advanced Video Codec
    Профиль формата : High@L3.2
    Настройки формата : CABAC/4 Ref Frames
    Параметр CABAC формата : Да
    Параметр RefFrames формата : 4 кадра
    Идентификатор кодека : V_MPEG4/ISO/AVC
    Продолжительность : 1 ч. 36 м.
    Битрейт : 3205 Кбит/сек
    Ширина : 1280 пикселей
    Высота : 720 пикселей
    Соотношение сторон : 16: 9
    Режим частоты кадров : Постоянный
    Частота кадров : 50, 000 кадров/сек
    Цветовое пространство : YUV
    Субдискретизация насыщенности : 4: 2: 0
    Битовая глубина : 8 бит
    Тип развёртки : Прогрессивная
    Бит/(Пиксели*Кадры) : 0.070
    Размер потока : 2, 16 Гбайт (94%)
    Библиотека кодирования : Lavc58.16.100 libx264
    Default : Да
    Forced : Нет
    Аудио
    Идентификатор : 2
    Формат : AC-3
    Формат/Информация : Audio Coding 3
    Коммерческое название : Dolby Digital
    Идентификатор кодека : A_AC3
    Продолжительность : 1 ч. 36 м.
    Вид битрейта : Постоянный
    Битрейт : 128 Кбит/сек
    Каналы : 2 канала
    Channel layout : L R
    Частота : 48, 0 КГц
    Частота кадров : 31, 250 кадров/сек (1536 SPF)
    Битовая глубина : 16 бит
    Метод сжатия : С потерями
    Задержка видео : -37 мс.
    Размер потока : 88, 4 Мбайт (4%)
    Библиотека кодирования : Lavc58.16.100 ac3
    Язык : Russian
    ServiceKind/String : Complete Main
    Default : Да
    Forced : Нет

    Скриншоты для ознакомления



    Все одноименные релизы в Клубе
    Время раздачи: 24/7 (около 1 месяца)


    Чемпионат мира по лыжным видам спорта 2019. Зеефельд (Австрия). Лыжные гонки. Спринт. Свободный стиль. Квалификация (2019) HDTVRip [H.264/720p-LQ] [hand made 50fps]
    Рейтинг →
     (голосов: 1, оценка 4/5, голосовать можно 1 раз )

    Другие торренты по теме:

  • Чемпионат мира по футболу 2018 Россия | Кубок мира v1.17 AdFree [Ru]
  • Велоспорт. Чемпионат мира по шоссе 2014. Индивидуальная гонка с раздельным стартом / Road World Championships 2014. (24.09.2014) HDTVRip [H.264 / 1080p-LQ] [EN]
  • Велоспорт. Чемпионат мира по шоссейным велогонкам 2014. Командная гонка / Road World Championships 2014. (21.09.2014) HDTVRip [H.264 / 1080p-LQ] [EN]
  • Футбол. Чемпионат Мира 2014. Финал. Германия - Аргентина (2014.07.13) HDTVRip [H.264 / 720p] [hand made 50fps]
  • Футбол. Чемпионат Мира 2014. Все голы (2014) HDTVRip [H.264 / 720p] [hand made 50fps]
  • Футбол. Чемпионат Мира 2014. Матч за 1-2 место. Финал. Германия – Аргентина + Награждение (2014.07.13) HDTV [H.264 / 1080i]
  • Футбол. Чемпионат Мира 2014. Матч за 1-2 место. Финал. Германия - Аргентина (2014.07.13) WEB-DL [H.264 / 720p-LQ]
  • Футбол. Чемпионат Мира 2014. Матч за 1-2 место. Финал. Германия - Аргентина (2014.07.13) HDTVRip


    • Комментарии (0):

      Информация

      Информация

        Посетители, находящиеся в группе Гости, не могут оставлять комментарии в данной новости.

        ↓ Меню




        ↓ Опрос

        Вы добавили сайт в закладки?
        Да
        Нет


        Top 10 за месяц (Передачи)