.
Авторизация | Регистрация

Торрент скачать бесплатно

  • support: webmaster@btracker.club
» » Чемпионат мира по лыжным видам спорта 2019. Зеефельд (Австрия). Лыжные гонки. Спринт. Свободный стиль. Финалы (2019) HDTVRip[H.264 / 720p-LQ] [hand made 50fps] торрент скачать бесплатно


    Чемпионат мира по лыжным видам спорта 2019. Зеефельд (Австрия). Лыжные гонки. Спринт. Свободный стиль. Финалы (2019) HDTVRip[H.264 / 720p-LQ] [hand made 50fps] торрент скачать бесплатно

    Дата: 26-02-2019, 05:00 | .torrent скачали: 0

    Чемпионат мира по лыжным видам спорта 2019. Зеефельд (Австрия). Лыжные гонки. Спринт. Свободный стиль. Финалы (2019) HDTVRip[H.264 / 720p-LQ] [hand made 50fps]Телекомпания: Матч ТВ HD
    Жанр: Спорт
    Комментатор: Дмитрий Губерниев

    Описание
    21 февраля 2019 года, четверг. 16: 30 МСК
    Чемпионат мира по лыжным видам спорта 2019. Зеефельд (Австрия)
    Лыжные гонки. Спринт.
    Женщины, Мужчины. Свободный стиль. Финалы
    Стадион: Тони Зелос (Зеефельд-ин-Тироль, Австрия)
    Продолжительность: 01: 48: 02
    Качество видео: HDTVRip
    Язык озвучки: Русский, Интершум
    Субтитры: отсутствуют
    Видео: AVC/H.264, 1280x720 (16: 9), ~3710 Kbps, 50 fps
    Аудио #1: AC3, 2 ch, 48 kHz, 128 Kbps | Русский
    Аудио #2: AC3, 2 ch, 48 kHz, 128 Kbps | Интершум

    Общее
    Уникальный идентификатор : 104762630002941526283949764984961281859 (0x4ED08C7233035E0089C6A2125A04AF43)
    Полное имя : F: SPORTFIS Nordic World Ski Championships 2019. Seefeld (AUS)Cross-countryFIS Nordic Ski WCh 2019.Seefeld(AUS).Cross-Country.Sprint Free. Finals 21.02.2019.mkv
    Формат : Matroska
    Версия формата : Version 4
    Размер файла : 3, 05 Гбайт
    Продолжительность : 1 ч. 48 м.
    Общий поток : 4046 Кбит/сек
    Программа кодирования : Lavf58.10.100
    Библиотека кодирования : Lavf58.10.100
    ErrorDetectionType : Per level 1
    Видео
    Идентификатор : 1
    Формат : AVC
    Формат/Информация : Advanced Video Codec
    Профиль формата : High@L3.2
    Настройки формата : CABAC/4 Ref Frames
    Параметр CABAC формата : Да
    Параметр RefFrames формата : 4 кадра
    Идентификатор кодека : V_MPEG4/ISO/AVC
    Продолжительность : 1 ч. 48 м.
    Битрейт : 3710 Кбит/сек
    Ширина : 1280 пикселей
    Высота : 720 пикселей
    Соотношение сторон : 16: 9
    Режим частоты кадров : Постоянный
    Частота кадров : 50, 000 кадров/сек
    Цветовое пространство : YUV
    Субдискретизация насыщенности : 4: 2: 0
    Битовая глубина : 8 бит
    Тип развёртки : Прогрессивная
    Бит/(Пиксели*Кадры) : 0.081
    Размер потока : 2, 80 Гбайт (92%)
    Библиотека кодирования : Lavc58.16.100 libx264
    Default : Да
    Forced : Нет
    Аудио #1
    Идентификатор : 2
    Формат : AC-3
    Формат/Информация : Audio Coding 3
    Коммерческое название : Dolby Digital
    Идентификатор кодека : A_AC3
    Продолжительность : 1 ч. 48 м.
    Вид битрейта : Постоянный
    Битрейт : 128 Кбит/сек
    Каналы : 2 канала
    Channel layout : L R
    Частота : 48, 0 КГц
    Частота кадров : 31, 250 кадров/сек (1536 SPF)
    Битовая глубина : 16 бит
    Метод сжатия : С потерями
    Задержка видео : -29 мс.
    Размер потока : 98, 9 Мбайт (3%)
    Библиотека кодирования : Lavc58.16.100 ac3
    Язык : Russian
    ServiceKind/String : Complete Main
    Default : Да
    Forced : Нет
    Аудио #2
    Идентификатор : 3
    Формат : AC-3
    Формат/Информация : Audio Coding 3
    Коммерческое название : Dolby Digital
    Идентификатор кодека : A_AC3
    Продолжительность : 1 ч. 48 м.
    Вид битрейта : Постоянный
    Битрейт : 128 Кбит/сек
    Каналы : 2 канала
    Channel layout : L R
    Частота : 48, 0 КГц
    Частота кадров : 31, 250 кадров/сек (1536 SPF)
    Битовая глубина : 16 бит
    Метод сжатия : С потерями
    Задержка видео : -29 мс.
    Размер потока : 98, 9 Мбайт (3%)
    Библиотека кодирования : Lavc58.16.100 ac3
    ServiceKind/String : Complete Main
    Default : Да
    Forced : Нет

    Скриншоты для ознакомления



    Все одноименные релизы в Клубе
    Время раздачи: 24/7 (около 1 месяца)


    Чемпионат мира по лыжным видам спорта 2019. Зеефельд (Австрия). Лыжные гонки. Спринт. Свободный стиль. Финалы (2019) HDTVRip[H.264/720p-LQ] [hand made 50fps]
    Рейтинг →
     (голосов: 1, оценка 4/5, голосовать можно 1 раз )

    Другие торренты по теме:

  • Чемпионат мира по футболу 2018 Россия | Кубок мира v1.17 AdFree [Ru]
  • Хоккей. Чемпионат Мира 2019. Группа B. Швейцария — Россия (19.05.2019) HDTV [H.264 / 1080i-LQ]
  • Хоккей. Чемпионат Мира 2019. Группа B. Швеция — Швейцария (18.05.2019) HDTVRip [H.264 / 720p-LQ] [hand made 50fps]
  • Хоккей. Чемпионат Мира 2019. Группа A. Великобритания — Словакия (18.05.2019) HDTVRip [H.264 / 720p-LQ] [hand made 50fps]
  • Хоккей. Чемпионат Мира 2019. Группа B. Италия — Норвегия (18.05.2019) HDTVRip [H.264 / 720p-LQ]
  • Хоккей. Чемпионат Мира 2019. Группа A. Канада — Германия (18.05.2019) HDTVRip [H.264 / 720p-LQ] [hand made 50fps]
  • Хоккей. Чемпионат Мира 2019. Группа B. Латвия — Россия (18.05.2019) HDTVRip [H.264 / 720p-LQ] [hand made 50fps]
  • Хоккей. Чемпионат Мира 2019. Группа A. Дания — США (18.05.2019) WEB-DL [H.264 / 720p-LQ]


    • Комментарии (0):

      Информация

      Информация

        Посетители, находящиеся в группе Гости, не могут оставлять комментарии в данной новости.

        ↓ Меню




        ↓ Опрос

        Вы добавили сайт в закладки?
        Да
        Нет


        Top 10 за месяц (Передачи)