.
Авторизация | Регистрация

Торрент скачать бесплатно

  • support: webmaster@btracker.club
» » Доломиты / Dolomiti (2018) WEBRip [H.264 / 2160p] [4K, UHD] торрент скачать бесплатно


    Доломиты / Dolomiti (2018) WEBRip [H.264 / 2160p] [4K, UHD] торрент скачать бесплатно

    Дата: 26-02-2019, 05:00 | .torrent скачали: 1

    Доломиты / Dolomiti (2018) WEBRip [H.264 / 2160p] [4K, UHD]Производство: Италия
    Жанр: Документальный, видовой
    Режиссер: Генри Джун Ва Ли

    Описание

    Доломиты заполнены абсолютно эпическими горами. Скалистые пики, острые как бритва края, обширные виды, парящие облака и эпический свет сделали это место незабываемым.
    Продолжительность: 00: 02: 50
    Качество видео: WEBRip
    Перевод: Не требуется (нет диалогов и комментариев)
    Субтитры: отсутствуют
    Видео: AVC/H.264, 3840x2160, ~13, 3 Mbps
    Аудио: AAC, 2 ch, 137 Kbps

    Общее
    Уникальный идентификатор : 4838621566882754994330498624174540189 (0x3A3E2763A765E2AF85A92AFEC35C59D)
    Полное имя : F: КИНОДОЛОМИТЫ.mkv
    Формат : Matroska
    Версия формата : Version 4
    Размер файла : 274 Мбайт
    Продолжительность : 2 м. 50 с.
    Общий поток : 13, 5 Мбит/сек
    Дата кодирования : UTC 2019-02-25 01: 12: 49
    Программа кодирования : mkvmerge v31.0.0 (\'Dolores In A Shoestand\') 64-bit
    Библиотека кодирования : libebml v1.3.6 + libmatroska v1.4.9
    Видео
    Идентификатор : 1
    Формат : AVC
    Формат/Информация : Advanced Video Codec
    Профиль формата : High@L5.2
    Настройки формата : CABAC/5 Ref Frames
    Параметр CABAC формата : Да
    Параметр RefFrames формата : 5 кадров
    Идентификатор кодека : V_MPEG4/ISO/AVC
    Продолжительность : 2 м. 50 с.
    Битрейт : 13, 3 Мбит/сек
    Ширина : 3840 пикселей
    Высота : 2160 пикселей
    Соотношение сторон : 16: 9
    Режим частоты кадров : Постоянный
    Частота кадров : 24, 000 кадра/сек
    Цветовое пространство : YUV
    Субдискретизация насыщенности : 4: 2: 0
    Битовая глубина : 8 бит
    Тип развёртки : Прогрессивная
    Бит/(Пиксели*Кадры) : 0.067
    Размер потока : 271 Мбайт (99%)
    Библиотека кодирования : x264 core 155 r0+2917M 0a84d98
    Настройки программы : cabac=1/ref=5/deblock=1: 0: 0/analyse=0x3: 0x113/me=hex/subme=8/psy=1/psy_rd=1.00: 0.00/mixed_ref=1/me_range=16/chroma_me=1/trellis=2/8x8dct=1/cqm=0/deadzone=21, 11/fast_pskip=1/chroma_qp_offset=-2/threads=48/lookahead_threads=8/sliced_threads=0/nr=0/decimate=1/interlaced=0/bluray_compat=0/stitchable=1/constrained_intra=0/bframes=3/b_pyramid=2/b_adapt=2/b_bias=0/direct=3/weightb=1/open_gop=0/weightp=2/keyint=infinite/keyint_min=24/scenecut=40/intra_refresh=0/rc_lookahead=50/rc=crf/mbtree=1/crf=20.0/qcomp=0.60/qpmin=5/qpmax=69/qpstep=4/vbv_maxrate=24200/vbv_bufsize=66000/crf_max=0.0/nal_hrd=none/filler=0/ip_ratio=1.40/aq=1: 1.00
    Default : Да
    Forced : Нет
    Цветовой диапазон : Limited
    Основные цвета : BT.709
    Характеристики трансфера : BT.709
    Коэффициенты матрицы : BT.709
    Аудио
    Идентификатор : 2
    Формат : AAC LC
    Формат/Информация : Advanced Audio Codec Low Complexity
    Идентификатор кодека : A_AAC-2
    Продолжительность : 2 м. 50 с.
    Битрейт : 137 Кбит/сек
    Каналы : 2 канала
    Channel layout : L R
    Частота : 48, 0 КГц
    Частота кадров : 46, 875 кадров/сек (1024 SPF)
    Метод сжатия : С потерями
    Размер потока : 2, 78 Мбайт (1%)
    Default : Да
    Forced : Нет

    Скриншоты для ознакомления



    Все одноименные релизы в Клубе
    Время раздачи: с 18: 00 до 23: 00 (до появления первых 3-5 скачавших)


    Доломиты/Dolomiti (2018) WEBRip [H.264/2160p] [4K, UHD]
    Рейтинг →
     (голосов: 1, оценка 5/5, голосовать можно 1 раз )

    Другие торренты по теме:

  • Всемирное природное наследие. Итальянские Доломиты - Падение в Альпах / Italian Dolomites - Fall in the Alps (2018) WEBRip [VP9 / 2160p] [4K] (Серии 1-2 из 2)


    • Комментарии (0):

      Информация

      Информация

        Посетители, находящиеся в группе Гости, не могут оставлять комментарии в данной новости.

        ↓ Меню




        ↓ Опрос

        Вы добавили сайт в закладки?
        Да
        Нет


        Top 10 за месяц (Передачи)