.
Авторизация | Регистрация

Торрент скачать бесплатно

  • support: webmaster@btracker.club
» » С нашим сердцем / Meg okkar hjarta (2018) WEB-DL [H.264 / 2160p] [4K, UHD] торрент скачать бесплатно


    С нашим сердцем / Meg okkar hjarta (2018) WEB-DL [H.264 / 2160p] [4K, UHD] торрент скачать бесплатно

    Дата: 26-02-2019, 05:00 | .torrent скачали: 0

    С нашим сердцем / Meg okkar hjarta (2018) WEB-DL [H.264 / 2160p] [4K, UHD]Производство: Исландия
    Жанр: Документальный, видовой
    Режиссер: Олафур Мар Бьорнссон

    Описание

    Каждый год мы путешествуем по исландскому высокогорью и другим отдаленным районам острова в поисках спокойствия и покоя и особого исландского света.
    Продолжительность: 00: 04: 20
    Качество видео: WEB-DL
    Перевод: Не требуется (нет диалогов и комментариев)
    Субтитры: отсутствуют
    Видео: AVC/H.264, 4096x2214, ~51, 2 Mbps
    Аудио: AAC, 2 ch, 126 Kbps

    Общее
    Уникальный идентификатор : 151240356589057226781617419757764825443 (0x71C7D549AD3AB12DB068015F71355163)
    Полное имя : F: КИНОС НАШИМ СЕРДЦЕМ.mkv
    Формат : Matroska
    Версия формата : Version 4
    Размер файла : 1, 55 Гбайт
    Продолжительность : 4 м. 20 с.
    Режим общего битрейта : Переменный
    Общий поток : 51, 3 Мбит/сек
    Дата кодирования : UTC 2019-02-25 06: 55: 14
    Программа кодирования : mkvmerge v31.0.0 (\'Dolores In A Shoestand\') 64-bit
    Библиотека кодирования : libebml v1.3.6 + libmatroska v1.4.9
    Видео
    Идентификатор : 2
    Формат : AVC
    Формат/Информация : Advanced Video Codec
    Профиль формата : High@L5.2
    Настройки формата : CABAC/2 Ref Frames
    Параметр CABAC формата : Да
    Параметр RefFrames формата : 2 кадра
    Параметр GOP формата : M=1, N=30
    Идентификатор кодека : V_MPEG4/ISO/AVC
    Продолжительность : 4 м. 20 с.
    Вид битрейта : Переменный
    Битрейт : 51, 2 Мбит/сек
    Максимальный битрейт : 768 Кбит/сек
    Ширина : 4096 пикселей
    Высота : 2214 пикселей
    Соотношение сторон : 1, 85: 1
    Режим частоты кадров : Постоянный
    Частота кадров : 29, 970 (30000/1001) кадров/сек
    Цветовое пространство : YUV
    Субдискретизация насыщенности : 4: 2: 0
    Битовая глубина : 8 бит
    Тип развёртки : Прогрессивная
    Бит/(Пиксели*Кадры) : 0.188
    Размер потока : 1, 55 Гбайт (100%)
    Default : Да
    Forced : Нет
    Цветовой диапазон : Limited
    Основные цвета : BT.709
    Характеристики трансфера : BT.709
    Коэффициенты матрицы : BT.709
    Аудио
    Идентификатор : 1
    Формат : AAC LC
    Формат/Информация : Advanced Audio Codec Low Complexity
    Идентификатор кодека : A_AAC-2
    Продолжительность : 4 м. 20 с.
    Битрейт : 126 Кбит/сек
    Каналы : 2 канала
    Channel layout : L R
    Частота : 48, 0 КГц
    Частота кадров : 46, 875 кадров/сек (1024 SPF)
    Метод сжатия : С потерями
    Размер потока : 3, 91 Мбайт (0%)
    Язык : English
    Default : Да
    Forced : Нет

    Скриншоты для ознакомления



    Все одноименные релизы в Клубе
    Время раздачи: с 18: 00 до 23: 00 (до появления первых 3-5 скачавших)


    С нашим сердцем/Meg okkar hjarta (2018) WEB-DL [H.264/2160p] [4K, UHD]
    Рейтинг →
     (голосов: 1, оценка 5/5, голосовать можно 1 раз )

    Другие торренты по теме:

  • Был ли неандерталец нашим предком / Papa Neandertal (2010) IPTVRip скачать через торрент бесплатно
  • Леонард Млодинов | (Нео)сознанное. Как бессознательный ум управляет нашим поведением (2013) [EPUB, FB2, MOBI]
  • Эмеран Майер | Второй мозг. Как микробы в кишечнике управляют нашим настроением, решениями и здоровьем (2018) [FB2]
  • Эмеран Майер | Второй мозг. Как микробы в кишечнике управляют нашим настроением, решениями и здоровьем (2018) [PDF]
  • Эмеран Майер | Второй мозг. Как микробы в кишечнике управляют нашим настроением, решениями и здоровьем (2018) [EPUB, MOBI]


    • Комментарии (0):

      Информация

      Информация

        Посетители, находящиеся в группе Гости, не могут оставлять комментарии в данной новости.

        ↓ Меню




        ↓ Опрос

        Вы добавили сайт в закладки?
        Да
        Нет


        Top 10 за месяц (Передачи)