.
Авторизация | Регистрация

Торрент скачать бесплатно

  • support: webmaster@btracker.club
» » Эпидемия близорукости / Demain, tous myopes (The myopia boom) (2018) WEBRip [H.264 / 1080p-LQ] торрент скачать бесплатно


    Эпидемия близорукости / Demain, tous myopes (The myopia boom) (2018) WEBRip [H.264 / 1080p-LQ] торрент скачать бесплатно

    Дата: 26-02-2019, 05:00 | .torrent скачали: 4

    Эпидемия близорукости / Demain, tous myopes (The myopia boom) (2018) WEBRip [H.264 / 1080p-LQ]Производство: Франция, Scientifilms, Arte
    Жанр: Документальный, познавательный, научно-популярный
    Режиссер: Кристоф Килиан

    Описание

    Близорукость сегодня достигла масштабов эпидемии. Статистика показывает, что, к примеру, в Восточной Азии около 90% подростков страдают от этого недуга, в США и Европе - около 50%. По некоторым оценкам, к 2050-му году на планете будет почти полмиллиарда близоруких людей. В простых случаях эта болезнь не является страшной, но в тяжелых может приводить к отслоению сетчатки, развитию катаракты, глаукомы и даже слепоты. Примерно пятая часть студентов вузов в Восточной Азии страдает от тяжелой формы близорукости, а у половины из них развивается необратимая потеря зрения. Опасность этой болезни заставляет ученых все активнее проводить исследования для понимания ее причин, и некоторые ответы уже получены...

    Продолжительность: 00: 55: 01
    Качество видео: WEBRip
    Перевод: Многоголосый закадровый, профессиональный (Видеофильм-ТВ)
    Субтитры: отсутствуют
    Видео: AVC/H.264, 1920x1080, ~17.7 Mbps
    Аудио: AAC, 2 ch, 192 Kbps

    Общее
    Уникальный идентификатор : 21897368104918115325193399591932911273 (0x1079479A00D54C2349A119D192B1DEA9)
    Полное имя : F: КИНОthemyopiaboom.mkv
    Формат : Matroska
    Версия формата : Version 4
    Размер файла : 6, 39 Гбайт
    Продолжительность : 51 м. 1 с.
    Режим общего битрейта : Переменный
    Общий поток : 17, 9 Мбит/сек
    Дата кодирования : UTC 2019-02-25 21: 28: 00
    Программа кодирования : mkvmerge v31.0.0 (\'Dolores In A Shoestand\') 64-bit
    Библиотека кодирования : libebml v1.3.6 + libmatroska v1.4.9
    Видео
    Идентификатор : 1
    Формат : AVC
    Формат/Информация : Advanced Video Codec
    Профиль формата : Main@L4.1
    Настройки формата : CABAC/2 Ref Frames
    Параметр CABAC формата : Да
    Параметр RefFrames формата : 2 кадра
    Параметр GOP формата : M=1, N=25
    Идентификатор кодека : V_MPEG4/ISO/AVC
    Продолжительность : 51 м. 1 с.
    Вид битрейта : Переменный
    Битрейт : 17, 7 Мбит/сек
    Максимальный битрейт : 36, 2 Мбит/сек
    Ширина : 1920 пикселей
    Высота : 1080 пикселей
    Соотношение сторон : 16: 9
    Режим частоты кадров : Постоянный
    Частота кадров : 29, 970 (30000/1001) кадров/сек
    Цветовое пространство : YUV
    Субдискретизация насыщенности : 4: 2: 0
    Битовая глубина : 8 бит
    Тип развёртки : Прогрессивная
    Бит/(Пиксели*Кадры) : 0.285
    Размер потока : 6, 32 Гбайт (99%)
    Default : Да
    Forced : Нет
    Аудио
    Идентификатор : 2
    Формат : AAC LC
    Формат/Информация : Advanced Audio Codec Low Complexity
    Идентификатор кодека : A_AAC-2
    Продолжительность : 51 м. 1 с.
    Битрейт : 192 Кбит/сек
    Каналы : 2 канала
    Channel layout : L R
    Частота : 44, 1 КГц
    Частота кадров : 43, 066 кадра/сек (1024 SPF)
    Метод сжатия : С потерями
    Размер потока : 71, 5 Мбайт (1%)
    Default : Да
    Forced : Нет

    Скриншоты для ознакомления



    Все одноименные релизы в Клубе
    Время раздачи: с 18: 00 до 23: 00 (до появления первых 3-5 скачавших)


    Эпидемия близорукости/Demain, tous myopes (The myopia boom) (2018) WEBRip [H.264/1080p-LQ]
    Рейтинг →
     (голосов: 1, оценка 3/5, голосовать можно 1 раз )

    Другие торренты по теме:

  • Спайс-эпидемия (2014.10.18) SATRip
  • Эбола. Эпидемия из пробирки (2014.10.25) SATRip скачать через торрент бесплатно
  • Эпидемия / Outbreak (1995) BDRemux [1080p] скачать через торрент бесплатно
  • Эпидемия / Los ultimos dias (2013) BDRip скачать через торрент бесплатно
  • Андрей Шляхов | Доктор Данилов в Склифе. Эпидемия (2015) [MP3]
  • Эпидемия - Дует Ветер Ледяной (2015) 2CD Live [MP3|320 кб / с] <Power Metal>
  • В теме. Эпидемия заговора (23.05.2016) SATRip
  • Борис Калашников | Эпидемия до востребования (2016) [FB2]


    • Комментарии (0):

      Информация

      Информация

        Посетители, находящиеся в группе Гости, не могут оставлять комментарии в данной новости.

        ↓ Меню




        ↓ Опрос

        Вы добавили сайт в закладки?
        Да
        Нет


        Top 10 за месяц (Передачи)