.
Авторизация | Регистрация

Торрент скачать бесплатно

  • support: webmaster@btracker.club
» » Новый взгляд на тираннозавра / Rediscovering T. Rex (2018) HDTVRip [H.264 / 1080p-LQ] торрент скачать бесплатно


    Новый взгляд на тираннозавра / Rediscovering T. Rex (2018) HDTVRip [H.264 / 1080p-LQ] торрент скачать бесплатно

    Дата: 26-02-2019, 05:00 | .torrent скачали: 0

    Новый взгляд на тираннозавра / Rediscovering T. Rex (2018) HDTVRip [H.264 / 1080p-LQ]Производство: Канада, Canada Media Fund
    Жанр: Документальный, археология, реконструкция
    Режиссер: Марк Эверест, Мартин Уильямс

    Описание

    В этой специальной программе, мы приглашаем вас в захватывающее детективное путешествие, в котором раскроем тайны суперхищника - тираннозавра. Используя новейшие достижения в области палеонтологии, современные технологии и сравнительные модели современных животных, мы по-новому узнаем этого классического динозавра, поймем, как на самом деле выглядел и звучал тираннозавр, как он двигался и с какой скоростью. Мы изучим его знаменитый укус, интеллект, чувства и даже социальную жизнь. Голливудские мифы отступают, открывая правду о животном, которое мы считали знакомым.
    Релиз от: рип Zakol
    Продолжительность: 00: 48: 29
    Качество видео: HDTVRip
    Перевод: Одноголосый закадровый, профессиональный (SDI Media)
    Субтитры: отсутствуют
    Видео: AVC/H.264, 1920x1080, ~4025 Kbps
    Аудио: AAC, 2 ch, 192 Kbps (текст читал: Глеб Глушенков)

    Общее
    Уникальный идентификатор : 49337422004210729622073847539819716823 (0x251E0AB622DE41F75FFAB32B1715A0D7)
    Полное имя : F: КИНОНовый взгляд на тираннозавра 1080 (2018).mkv
    Формат : Matroska
    Версия формата : Version 4
    Размер файла : 1, 43 Гбайт
    Продолжительность : 48 м. 29 с.
    Режим общего битрейта : Переменный
    Общий поток : 4217 Кбит/сек
    Дата кодирования : UTC 2019-02-25 07: 23: 38
    Программа кодирования : mkvmerge v31.0.0 (\'Dolores In A Shoestand\') 64-bit
    Библиотека кодирования : libebml v1.3.6 + libmatroska v1.4.9
    Видео
    Идентификатор : 1
    Формат : AVC
    Формат/Информация : Advanced Video Codec
    Профиль формата : High@L4
    Настройки формата : CABAC/4 Ref Frames
    Параметр CABAC формата : Да
    Параметр RefFrames формата : 4 кадра
    Идентификатор кодека : V_MPEG4/ISO/AVC
    Продолжительность : 48 м. 29 с.
    Вид битрейта : Переменный
    Битрейт : 4025 Кбит/сек
    Максимальный битрейт : 4500 Кбит/сек
    Ширина : 1920 пикселей
    Высота : 1080 пикселей
    Соотношение сторон : 16: 9
    Режим частоты кадров : Постоянный
    Частота кадров : 25, 000 кадров/сек
    Цветовое пространство : YUV
    Субдискретизация насыщенности : 4: 2: 0
    Битовая глубина : 8 бит
    Тип развёртки : Прогрессивная
    Бит/(Пиксели*Кадры) : 0.078
    Размер потока : 1, 36 Гбайт (95%)
    Default : Да
    Forced : Нет
    Аудио
    Идентификатор : 2
    Формат : AAC LC
    Формат/Информация : Advanced Audio Codec Low Complexity
    Идентификатор кодека : A_AAC-2
    Продолжительность : 48 м. 29 с.
    Битрейт : 192 Кбит/сек
    Каналы : 2 канала
    Channel layout : L R
    Частота : 48, 0 КГц
    Частота кадров : 46, 875 кадров/сек (1024 SPF)
    Метод сжатия : С потерями
    Размер потока : 65, 7 Мбайт (4%)
    Default : Да
    Forced : Нет

    Скриншоты для ознакомления



    Все одноименные релизы в Клубе
    Время раздачи: с 18: 00 до 23: 00 (до появления первых 3-5 скачавших)


    Новый взгляд на тираннозавра/Rediscovering T. Rex (2018) HDTVRip [H.264/1080p-LQ]
    Рейтинг →
     (голосов: 1, оценка 3/5, голосовать можно 1 раз )

    Другие торренты по теме:

  • Сьюзен Фаулер | Почему они не работают Новый взгляд на мотивацию сотрудников (2016) [EPUB, FB2, MOBI]
  • Наталия Баранова, Сергей Савоськин | Чтение по руке. Новый взгляд на хиромантию. Иллюстрированная энциклопедия (2016) [PDF]
  • Сослан Варзиев | Атлетический тюнинг. Новый взгляд на культуру физического совершенства (2009) [FB2, RTF]
  • Хэнсон У. Болдуин | Сражения выигранные и проигранные. Новый взгляд на крупные военные кампании Второй мировой войны (2002) [PDF]
  • Артём Демчуков | Фрукторианство. Новый взгляд на эволюцию питания человека (2017) [FB2]
  • Древняя Земля (Новый взгляд на доисторическую эпоху) / Ancient Earth (Life on Earth: A New Prehistory, Les Mondes Perdus) (2016) HDTVRip [H.264 / 720p-LQ] (Серии 1-3 из 3)
  • Древняя Земля: Новый взгляд на доисторическую эпоху / Les mondes perdus / Life on Earth: A New Prehistory / Ausgeloescht: Das Ende der Dinosaurier (2016) BDRemux [H.264 / 1080i] (Серии 1-3 из 3)
  • Новый взгляд на тираннозавра / Rediscovering T. Rex (2018) HDTVRip


    • Комментарии (0):

      Информация

      Информация

        Посетители, находящиеся в группе Гости, не могут оставлять комментарии в данной новости.

        ↓ Меню




        ↓ Опрос

        Вы добавили сайт в закладки?
        Да
        Нет


        Top 10 за месяц (Передачи)