.
Авторизация | Регистрация
Хочешь лучшие торренты? Добавь свой email!
Добавить

Торрент скачать бесплатно

  • support: webmaster@btracker.club
» » Animal Planet: Дом для рептилий. Агамы Дикого Запада / Scaled (2018) HDTV [H.264 / 1080i-LQ] торрент скачать бесплатно


    Animal Planet: Дом для рептилий. Агамы Дикого Запада / Scaled (2018) HDTV [H.264 / 1080i-LQ] торрент скачать бесплатно

    Опубликовал: fregat | Дата: 26-02-2019, 05:00 | .torrent скачали: 0

    Animal Planet: Дом для рептилий. Агамы Дикого Запада / Scaled (2018) HDTV [H.264 / 1080i-LQ]Производство: США, Animal Planet
    Жанр: Документальный, природа, флора, фауна

    Описание

    Рептилии конкурируют с кошками и собаками за звание самых популярных домашних питомцев. Грэг Уэст и его команда, состоящая из лучших зоологов и искусных мастеров, предлагают свои уникальные услуги заводчикам и владельцам рептилий, которые мечтают об оригинальном жилище для своих чешуйчатых любимцев. Яркий дизайн и знание особенностей этих животных позволяет делать террариумы, в которых нужды питомцев всегда стоят на первом месте.
    В этой серии семья заказала Грегу и Лукасу для своей первой рептилии террариум на тему салуна. Тайрон, Джейсон, Крис и Лукас соревнуются в создании самого забавного фотомема.

    Релиз от: РГ РиперАМ
    Продолжительность: 00: 43: 43
    Качество видео: HDTV
    Перевод: Одноголосый закадровый, профессиональный
    Субтитры: отсутствуют
    Видео: AVC/H.264, 1920x1080, ~10, 7 Mbps
    Аудио#1: MP2, 2 ch, 192 Kbps | Русский
    Аудио#2: MP2, 2 ch, 192 Kbps | Английский

    Общее
    Идентификатор : 1 (0x1)
    Полное имя : F: КИНОДом для репт. Агамы Дик. Зап. 1080 (2018).ts
    Формат : MPEG-TS
    Размер файла : 3, 55 Гбайт
    Продолжительность : 43 м. 43 с.
    Режим общего битрейта : Переменный
    Общий поток : 11, 6 Мбит/сек
    Видео
    Идентификатор : 1026 (0x402)
    Идентификатор меню : 119 (0x77)
    Формат : AVC
    Формат/Информация : Advanced Video Codec
    Профиль формата : High@L4
    Настройки формата : CABAC/4 Ref Frames
    Параметр CABAC формата : Да
    Параметр RefFrames формата : 4 кадра
    Идентификатор кодека : 27
    Продолжительность : 43 м. 43 с.
    Битрейт : 10, 7 Мбит/сек
    Ширина : 1920 пикселей
    Высота : 1080 пикселей
    Соотношение сторон : 16: 9
    Частота кадров : 25, 000 кадров/сек
    Стандарт вещания : Component
    Цветовое пространство : YUV
    Субдискретизация насыщенности : 4: 2: 0
    Битовая глубина : 8 бит
    Тип развёртки : Чересстрочная
    Метод сохранения типа развёртки : Раздельные поля
    Порядок развёртки : Верхнее поле первое
    Бит/(Пиксели*Кадры) : 0.205
    Размер потока : 3, 25 Гбайт (92%)
    Цветовой диапазон : Limited
    Основные цвета : BT.709
    Характеристики трансфера : BT.709
    Коэффициенты матрицы : BT.709
    Аудио #1
    Идентификатор : 1027 (0x403)
    Идентификатор меню : 119 (0x77)
    Формат : MPEG Audio
    Версия формата : Version 1
    Профиль формата : Layer 2
    Идентификатор кодека : 3
    Продолжительность : 43 м. 43 с.
    Вид битрейта : Постоянный
    Битрейт : 192 Кбит/сек
    Каналы : 2 канала
    Частота : 48, 0 КГц
    Частота кадров : 41, 667 кадра/сек (1152 SPF)
    Метод сжатия : С потерями
    Задержка видео : -40 мс.
    Размер потока : 60, 0 Мбайт (2%)
    Язык : Russian
    Аудио #2
    Идентификатор : 1028 (0x404)
    Идентификатор меню : 119 (0x77)
    Формат : MPEG Audio
    Версия формата : Version 1
    Профиль формата : Layer 2
    Идентификатор кодека : 3
    Продолжительность : 43 м. 43 с.
    Вид битрейта : Постоянный
    Битрейт : 192 Кбит/сек
    Каналы : 2 канала
    Частота : 48, 0 КГц
    Частота кадров : 41, 667 кадра/сек (1152 SPF)
    Метод сжатия : С потерями
    Задержка видео : -40 мс.
    Размер потока : 60, 0 Мбайт (2%)
    Язык : English

    Скриншоты для ознакомления



    Все одноименные релизы в Клубе
    Время раздачи: с 18: 00 до 23: 00 (до появления первых 3-5 скачавших)


    Animal Planet: Дом для рептилий. Агамы Дикого Запада/Scaled (2018) HDTV [H.264/1080i-LQ]
    Рейтинг →
     (голосов: 1, оценка 4/5, голосовать можно 1 раз )

    Другие торренты по теме:

  • Animal Planet: Поместье сурикатов / Animal Planet: Meerkat Manor (2007) [TVRip] [Season 3 / 13 серий из 13]
  • Animal Planet: Поместье сурикатов / Animal Planet: Meerkat Manor (2006) [TVRip] [Season 2 / 13 серий из 13]
  • Animal Planet: Поместье сурикатов / Animal Planet: Meerkat Manor (2005) [TVRip] [Season 1 / 13 серий из 13]
  • Animal Planet. Добыча - человек / I Survived An Animal Attack (2016) HDTVRip (Серия 1) (Обновляемая)
  • Animal Planet: Планета мутантов (Жизненная сила) / Mutant Planet (Life Force) (2010-2014) HDTV [H.264 / 1080i-LQ] (сезоны 1-2, эпизоды 12 из 12)
  • Animal Planet & BBC: Дикая планета / Wild Planet (2003-2005) TVRip [102 серии]
  • Animal Planet. Адская кошка / My Cat From Hell (2011-2014) TVRip / HDTVRip
  • Animal Planet. Чарльз и Джессика - история спасения (1 серия) / Harles and Jessica. A Chimp Tale (2013) HDTVRip скачать через торрент бесплатно


    • Комментарии (0):

      Информация

      Информация

        Посетители, находящиеся в группе Гости, не могут оставлять комментарии в данной новости.

        ↓ Меню




        ↓ Опрос

        Вы добавили сайт в закладки?
        Да
        Нет


        Top 10 за месяц (Передачи)