.
Авторизация | Регистрация

Торрент скачать бесплатно

  • support: webmaster@btracker.club
» » Биатлон. Чемпионат Европы 2019. Минск-Раубичи (Беларусь). Женщины. Индивидуальная гонка 15 км (2019) HDTVRip [H.264 / 720p-LQ] [hand made 50fps] торрент скачать бесплатно


    Биатлон. Чемпионат Европы 2019. Минск-Раубичи (Беларусь). Женщины. Индивидуальная гонка 15 км (2019) HDTVRip [H.264 / 720p-LQ] [hand made 50fps] торрент скачать бесплатно

    Дата: 25-02-2019, 05:00 | .torrent скачали: 0

    Биатлон. Чемпионат Европы 2019. Минск-Раубичи (Беларусь). Женщины. Индивидуальная гонка 15 км (2019) HDTVRip [H.264 / 720p-LQ] [hand made 50fps]Телекомпания: Eurosport 2 HD
    Жанр: Спорт
    Комментаторы: Андрей Кондрашов, Николай Круглов

    Описание
    20 февраля 2019 года, среда. 19: 30 МСК
    Открытый Чемпионат Европы по биатлону 2019. Раубичи (Беларусь)
    Женщины. Индивидуальная гонка 15 км
    Стадион: РЦОП по ЗВС Раубичи (Минск-Раубичи, Беларусь)
    Релиз от: Настольный теннисист
    Продолжительность: 01: 46: 53
    Качество видео: HDTVRip
    Язык озвучки: Русский, Английский
    Субтитры: отсутствуют
    Видео: AVC/H.264, 1280x720 (16: 9), ~3917 Kbps, 50 fps
    Аудио #1: AC3, 2 ch, 48 kHz, 192 Kbps | Русский
    Аудио #2: AC3, 2 ch, 48 kHz, 192 Kbps | Английский

    Общее
    Уникальный идентификатор : 31549477970298136549963892785585214226 (0x17BC355C03AF770102DCD005A6D25312)
    Полное имя : F: SPORTБиатлонIBU Open European Championships 2019. Minsk-Raubichi (BLR)Чемпионат Европы 2019. Минск-Раубичи (Беларусь). Женщины. Индивидуальная гонка 15 км.mkv
    Формат : Matroska
    Версия формата : Version 2
    Размер файла : 3, 28 Гбайт
    Продолжительность : 1 ч. 46 м.
    Общий поток : 4389 Кбит/сек
    Программа кодирования : Lavf54.63.104
    Библиотека кодирования : Lavf54.63.104
    Видео
    Идентификатор : 1
    Формат : AVC
    Формат/Информация : Advanced Video Codec
    Профиль формата : High@L4.1
    Настройки формата : CABAC/4 Ref Frames
    Параметр CABAC формата : Да
    Параметр RefFrames формата : 4 кадра
    Идентификатор кодека : V_MPEG4/ISO/AVC
    Продолжительность : 1 ч. 46 м.
    Битрейт : 3917 Кбит/сек
    Ширина : 1280 пикселей
    Высота : 720 пикселей
    Соотношение сторон : 16: 9
    Режим частоты кадров : Постоянный
    Частота кадров : 50, 000 кадров/сек
    Цветовое пространство : YUV
    Субдискретизация насыщенности : 4: 2: 0
    Битовая глубина : 8 бит
    Тип развёртки : Прогрессивная
    Бит/(Пиксели*Кадры) : 0.085
    Размер потока : 2, 92 Гбайт (89%)
    Default : Нет
    Forced : Нет
    Аудио #1
    Идентификатор : 2
    Формат : AC-3
    Формат/Информация : Audio Coding 3
    Коммерческое название : Dolby Digital
    Идентификатор кодека : A_AC3
    Продолжительность : 1 ч. 46 м.
    Вид битрейта : Постоянный
    Битрейт : 192 Кбит/сек
    Каналы : 2 канала
    Channel layout : L R
    Частота : 48, 0 КГц
    Частота кадров : 31, 250 кадров/сек (1536 SPF)
    Битовая глубина : 16 бит
    Метод сжатия : С потерями
    Размер потока : 147 Мбайт (4%)
    Язык : Russian
    ServiceKind/String : Complete Main
    Default : Да
    Forced : Нет
    Аудио #2
    Идентификатор : 3
    Формат : AC-3
    Формат/Информация : Audio Coding 3
    Коммерческое название : Dolby Digital
    Идентификатор кодека : A_AC3
    Продолжительность : 1 ч. 46 м.
    Вид битрейта : Постоянный
    Битрейт : 192 Кбит/сек
    Каналы : 2 канала
    Channel layout : L R
    Частота : 48, 0 КГц
    Частота кадров : 31, 250 кадров/сек (1536 SPF)
    Битовая глубина : 16 бит
    Метод сжатия : С потерями
    Размер потока : 147 Мбайт (4%)
    Язык : English
    ServiceKind/String : Complete Main
    Default : Нет
    Forced : Нет

    Скриншоты для ознакомления



    Все одноименные релизы в Клубе
    Время раздачи: 24/7 (около 1 месяца)


    Биатлон. Чемпионат Европы 2019. Минск-Раубичи (Беларусь). Женщины. Индивидуальная гонка 15 км (2019) HDTVRip [H.264/720p-LQ] [hand made 50fps]
    Рейтинг →
     (голосов: 1, оценка 3/5, голосовать можно 1 раз )

    Другие торренты по теме:

  • Биатлон. Чемпионат мира среди юниоров - 2016. Чейле Градистей (Румыния). Спринт (30.01.2016) HDTVRip [H.264 / 720p-LQ]
  • Биатлон. Чемпионат мира среди юниоров - 2016. Чейле Градистей (Румыния). Гонка преследования (31.01.2016) HDTVRip [H.264 / 720p-LQ]
  • Биатлон. Чемпионат Мира 2016. Осло-Хольменколлен (Норвегия). Смешанная эстафета 2x6км-2x7.5км (03.03.2016) HDTVRip [H.264 / 720p-LQ]
  • Биатлон. Чемпионат Мира 2016. Осло-Хольменколлен (Норвегия). Церемония открытия (02.03.2016) WEB-DLRip [H.264 / 720p-LQ] [EN]
  • Биатлон. Чемпионат Мира 2016. Осло-Хольменколлен (Норвегия). Спринт 10 км Мужчины (05.03.2016) HDTVRip [H.264 / 720p-LQ]
  • Биатлон. Чемпионат Мира 2016. Осло-Хольменколлен (Норвегия). Спринт 7,5 км Женщины (05.03.2016) HDTVRip [H.264 / 720p-LQ]
  • Биатлон. Чемпионат Мира 2016. Осло-Хольменколлен (Норвегия). Гонка преследования 12.5 км Мужчины (06.03.2016) HDTVRip [H.264 / 720p-LQ]
  • Биатлон. Чемпионат Мира 2016. Осло-Хольменколлен (Норвегия). Гонка преследования 10 км Женщины (06.03.2016) HDTVRip [H.264 / 720p-LQ]


    • Комментарии (0):

      Информация

      Информация

        Посетители, находящиеся в группе Гости, не могут оставлять комментарии в данной новости.

        ↓ Меню




        ↓ Опрос

        Вы добавили сайт в закладки?
        Да
        Нет


        Top 10 за месяц (Передачи)