.
Авторизация | Регистрация

Торрент скачать бесплатно

  • support: webmaster@btracker.club
» » Биатлон. Чемпионат Европы 2019. Минск-Раубичи (Беларусь). Женщины. Индивидуальная гонка 15 км (2019) WEB-DL [H.264 / 720p-LQ] торрент скачать бесплатно


    Биатлон. Чемпионат Европы 2019. Минск-Раубичи (Беларусь). Женщины. Индивидуальная гонка 15 км (2019) WEB-DL [H.264 / 720p-LQ] торрент скачать бесплатно

    Дата: 25-02-2019, 05:00 | .torrent скачали: 0

    Биатлон. Чемпионат Европы 2019. Минск-Раубичи (Беларусь). Женщины. Индивидуальная гонка 15 км (2019) WEB-DL [H.264 / 720p-LQ]Телекомпания: Матч! Арена HD
    Жанр: Спорт
    Комментатор: Леонид Народицкий

    Описание
    20 февраля 2019 года, среда. 19: 30 МСК
    Открытый Чемпионат Европы по биатлону 2019. Раубичи (Беларусь).
    Женщины. Индивидуальная гонка 15 км
    Стадион: РЦОП по ЗВС Раубичи (Минск-Раубичи, Беларусь)
    Продолжительность: 01: 33: 22
    Качество видео: WEB-DL
    Язык озвучки: Русский
    Субтитры: отсутствуют
    Видео: AVC/H.264, 1280x720 (16: 9), ~3748 Kbps
    Аудио: AAC, 2 ch, 128 Kbps

    Общее
    Уникальный идентификатор : 268619527226577133497519209822910470172 (0xCA163D368728C4BDA6D319AE55BCD81C)
    Полное имя : F: SPORTБиатлонIBU Open European Championships 2019. Minsk-Raubichi (BLR)IBU OECh 2019. Raubichi (BLR). Women 15 km Individual_20.02.2019.mkv
    Формат : Matroska
    Версия формата : Version 4
    Размер файла : 2, 53 Гбайт
    Продолжительность : 1 ч. 33 м.
    Общий поток : 3878 Кбит/сек
    Дата кодирования : UTC 2019-02-21 19: 33: 28
    Программа кодирования : mkvmerge v31.0.0 (\'Dolores In A Shoestand\') 64-bit
    Библиотека кодирования : libebml v1.3.6 + libmatroska v1.4.9
    Видео
    Идентификатор : 1
    Формат : AVC
    Формат/Информация : Advanced Video Codec
    Профиль формата : Baseline@L3.1
    Настройки формата : 3 Ref Frames
    Параметр CABAC формата : Нет
    Параметр RefFrames формата : 3 кадра
    Параметр GOP формата : M=1, N=25
    Идентификатор кодека : V_MPEG4/ISO/AVC
    Продолжительность : 1 ч. 33 м.
    Битрейт : 3748 Кбит/сек
    Ширина : 1280 пикселей
    Высота : 720 пикселей
    Соотношение сторон : 16: 9
    Режим частоты кадров : Постоянный
    Частота кадров : 25, 000 кадров/сек
    Цветовое пространство : YUV
    Субдискретизация насыщенности : 4: 2: 0
    Битовая глубина : 8 бит
    Тип развёртки : Прогрессивная
    Бит/(Пиксели*Кадры) : 0.163
    Размер потока : 2, 44 Гбайт (97%)
    Default : Да
    Forced : Нет
    Аудио
    Идентификатор : 2
    Формат : AAC LC
    Формат/Информация : Advanced Audio Codec Low Complexity
    Идентификатор кодека : A_AAC-2
    Продолжительность : 1 ч. 33 м.
    Битрейт : 128 Кбит/сек
    Каналы : 2 канала
    Channel layout : L R
    Частота : 44, 1 КГц
    Частота кадров : 43, 066 кадра/сек (1024 SPF)
    Метод сжатия : С потерями
    Размер потока : 85, 5 Мбайт (3%)
    Язык : Russian
    Default : Да
    Forced : Нет

    Скриншоты для ознакомления



    Все одноименные релизы в Клубе
    Время раздачи: 24/7 (около 1 месяца)


    Биатлон. Чемпионат Европы 2019. Минск-Раубичи (Беларусь). Женщины. Индивидуальная гонка 15 км (2019) WEB-DL [H.264/720p-LQ]
    Рейтинг →
     (голосов: 1, оценка 5/5, голосовать можно 1 раз )

    Другие торренты по теме:

  • Биатлон. Чемпионат мира среди юниоров - 2016. Чейле Градистей (Румыния). Спринт (30.01.2016) HDTVRip [H.264 / 720p-LQ]
  • Биатлон. Чемпионат мира среди юниоров - 2016. Чейле Градистей (Румыния). Гонка преследования (31.01.2016) HDTVRip [H.264 / 720p-LQ]
  • Биатлон. Чемпионат Мира 2016. Осло-Хольменколлен (Норвегия). Смешанная эстафета 2x6км-2x7.5км (03.03.2016) HDTVRip [H.264 / 720p-LQ]
  • Биатлон. Чемпионат Мира 2016. Осло-Хольменколлен (Норвегия). Церемония открытия (02.03.2016) WEB-DLRip [H.264 / 720p-LQ] [EN]
  • Биатлон. Чемпионат Мира 2016. Осло-Хольменколлен (Норвегия). Спринт 10 км Мужчины (05.03.2016) HDTVRip [H.264 / 720p-LQ]
  • Биатлон. Чемпионат Мира 2016. Осло-Хольменколлен (Норвегия). Спринт 7,5 км Женщины (05.03.2016) HDTVRip [H.264 / 720p-LQ]
  • Биатлон. Чемпионат Мира 2016. Осло-Хольменколлен (Норвегия). Гонка преследования 12.5 км Мужчины (06.03.2016) HDTVRip [H.264 / 720p-LQ]
  • Биатлон. Чемпионат Мира 2016. Осло-Хольменколлен (Норвегия). Гонка преследования 10 км Женщины (06.03.2016) HDTVRip [H.264 / 720p-LQ]


    • Комментарии (0):

      Информация

      Информация

        Посетители, находящиеся в группе Гости, не могут оставлять комментарии в данной новости.

        ↓ Меню




        ↓ Опрос

        Вы добавили сайт в закладки?
        Да
        Нет


        Top 10 за месяц (Передачи)