.
Авторизация | Регистрация

Торрент скачать бесплатно

  • support: webmaster@btracker.club
» » Биатлон. Чемпионат Европы 2019. Минск-Раубичи (Беларусь). Смешанная эстафета 2x6 + 2x7,5 км (2019) HDTVRip [H.264 / 720p-LQ] [hand made 50fps] торрент скачать бесплатно


    Биатлон. Чемпионат Европы 2019. Минск-Раубичи (Беларусь). Смешанная эстафета 2x6 + 2x7,5 км (2019) HDTVRip [H.264 / 720p-LQ] [hand made 50fps] торрент скачать бесплатно

    Дата: 25-02-2019, 05:00 | .torrent скачали: 0

    Биатлон. Чемпионат Европы 2019. Минск-Раубичи (Беларусь). Смешанная эстафета 2x6 + 2x7,5 км (2019) HDTVRip [H.264 / 720p-LQ] [hand made 50fps]Телекомпания: Матч ТВ HD
    Жанр: Спорт
    Комментатор: Леонид Народицкий

    Описание
    21 февраля 2019 года, четверг. 19: 00 МСК
    Открытый Чемпионат Европы по биатлону 2019. Раубичи (Беларусь)
    Смешанная эстафета 2x6 + 2x7, 5 км
    Стадион: РЦОП по ЗВС Раубичи (Минск-Раубичи, Беларусь)
    Релиз от: Настольный теннисист
    Продолжительность: 01: 02: 36
    Качество видео: HDTVRip
    Язык озвучки: Русский, Интершум
    Субтитры: отсутствуют
    Видео: AVC/H.264, 1280x720 (16: 9), ~4006 Kbps, 50 fps
    Аудио #1: AC3, 2 ch, 48 kHz, 192 Kbps | Русский
    Аудио #2: AC3, 2 ch, 48 kHz, 192 Kbps | Интершум

    Общее
    Уникальный идентификатор : 35755988253192503434246927083014343612 (0x1AE65A542AF2A311D6AC4F60E8664BBC)
    Полное имя : F: SPORTБиатлонIBU Open European Championships 2019. Minsk-Raubichi (BLR)Чемпионат Европы 2019. Минск-Раубичи (Беларусь). Смешанная эстафета.mkv
    Формат : Matroska
    Версия формата : Version 2
    Размер файла : 1, 96 Гбайт
    Продолжительность : 1 ч. 2 м.
    Общий поток : 4479 Кбит/сек
    Программа кодирования : Lavf54.63.104
    Библиотека кодирования : Lavf54.63.104
    Видео
    Идентификатор : 1
    Формат : AVC
    Формат/Информация : Advanced Video Codec
    Профиль формата : High@L4.1
    Настройки формата : CABAC/4 Ref Frames
    Параметр CABAC формата : Да
    Параметр RefFrames формата : 4 кадра
    Идентификатор кодека : V_MPEG4/ISO/AVC
    Продолжительность : 1 ч. 2 м.
    Битрейт : 4006 Кбит/сек
    Ширина : 1280 пикселей
    Высота : 720 пикселей
    Соотношение сторон : 16: 9
    Соотношение сторон в оригинале : 16: 9
    Режим частоты кадров : Постоянный
    Частота кадров : 50, 000 кадров/сек
    Цветовое пространство : YUV
    Субдискретизация насыщенности : 4: 2: 0
    Битовая глубина : 8 бит
    Тип развёртки : Прогрессивная
    Бит/(Пиксели*Кадры) : 0.087
    Размер потока : 1, 75 Гбайт (89%)
    Default : Нет
    Forced : Нет
    Аудио #1
    Идентификатор : 2
    Формат : AC-3
    Формат/Информация : Audio Coding 3
    Коммерческое название : Dolby Digital
    Идентификатор кодека : A_AC3
    Продолжительность : 1 ч. 2 м.
    Вид битрейта : Постоянный
    Битрейт : 192 Кбит/сек
    Каналы : 2 канала
    Channel layout : L R
    Частота : 48, 0 КГц
    Частота кадров : 31, 250 кадров/сек (1536 SPF)
    Битовая глубина : 16 бит
    Метод сжатия : С потерями
    Размер потока : 86, 0 Мбайт (4%)
    Язык : Russian
    ServiceKind/String : Complete Main
    Default : Да
    Forced : Нет
    Аудио #2
    Идентификатор : 3
    Формат : AC-3
    Формат/Информация : Audio Coding 3
    Коммерческое название : Dolby Digital
    Идентификатор кодека : A_AC3
    Продолжительность : 1 ч. 2 м.
    Вид битрейта : Постоянный
    Битрейт : 192 Кбит/сек
    Каналы : 2 канала
    Channel layout : L R
    Частота : 48, 0 КГц
    Частота кадров : 31, 250 кадров/сек (1536 SPF)
    Битовая глубина : 16 бит
    Метод сжатия : С потерями
    Размер потока : 86, 0 Мбайт (4%)
    ServiceKind/String : Complete Main
    Default : Нет
    Forced : Нет

    Скриншоты для ознакомления



    Все одноименные релизы в Клубе
    Время раздачи: 24/7 (около 1 месяца)


    Биатлон. Чемпионат Европы 2019. Минск-Раубичи (Беларусь). Смешанная эстафета 2x6 + 2x7,5 км (2019) HDTVRip [H.264/720p-LQ] [hand made 50fps]
    Рейтинг →
     (голосов: 1, оценка 4/5, голосовать можно 1 раз )

    Другие торренты по теме:

  • Биатлон. Чемпионат мира среди юниоров - 2016. Чейле Градистей (Румыния). Спринт (30.01.2016) HDTVRip [H.264 / 720p-LQ]
  • Биатлон. Чемпионат мира среди юниоров - 2016. Чейле Градистей (Румыния). Гонка преследования (31.01.2016) HDTVRip [H.264 / 720p-LQ]
  • Биатлон. Чемпионат Мира 2016. Осло-Хольменколлен (Норвегия). Смешанная эстафета 2x6км-2x7.5км (03.03.2016) HDTVRip [H.264 / 720p-LQ]
  • Биатлон. Чемпионат Мира 2016. Осло-Хольменколлен (Норвегия). Церемония открытия (02.03.2016) WEB-DLRip [H.264 / 720p-LQ] [EN]
  • Биатлон. Чемпионат Мира 2016. Осло-Хольменколлен (Норвегия). Спринт 10 км Мужчины (05.03.2016) HDTVRip [H.264 / 720p-LQ]
  • Биатлон. Чемпионат Мира 2016. Осло-Хольменколлен (Норвегия). Спринт 7,5 км Женщины (05.03.2016) HDTVRip [H.264 / 720p-LQ]
  • Биатлон. Чемпионат Мира 2016. Осло-Хольменколлен (Норвегия). Гонка преследования 12.5 км Мужчины (06.03.2016) HDTVRip [H.264 / 720p-LQ]
  • Биатлон. Чемпионат Мира 2016. Осло-Хольменколлен (Норвегия). Гонка преследования 10 км Женщины (06.03.2016) HDTVRip [H.264 / 720p-LQ]


    • Комментарии (0):

      Информация

      Информация

        Посетители, находящиеся в группе Гости, не могут оставлять комментарии в данной новости.

        ↓ Меню




        ↓ Опрос

        Вы добавили сайт в закладки?
        Да
        Нет


        Top 10 за месяц (Передачи)