.
Авторизация | Регистрация

Торрент скачать бесплатно

  • support: webmaster@btracker.club
» » Король, обманувший Гитлера / The King Who Tricked Hitler (2016) HDTVRip торрент скачать бесплатно


    Король, обманувший Гитлера / The King Who Tricked Hitler (2016) HDTVRip торрент скачать бесплатно

    Дата: 25-02-2019, 05:00 | .torrent скачали: 0

    Король, обманувший Гитлера / The King Who Tricked Hitler (2016) HDTVRipПроизводство: Румыния
    Жанр: Документальный, биография, война, история
    Режиссер: Тревор Поотс

    Описание

    Это одна из самых невероятных историй Второй мировой войны, рассказанная последним королем Румынии Михаилом I. Это история о решении короля, который в критический момент Второй мировой войны отказался от поддержки Германии, направив Румынию к союзникам. Считается, что это сократило войну на несколько месяцев, однако свобода Румынии была недолгой... Это история дворцовых интриг. И история обмана. Из Букингемского дворца в Бухарест. Из Москвы в Вашингтон. Потерянные дипломатические письма, аристократические шпионы и шантаж под дулом пистолета. И смелость молодого короля, который осмелился обмануть Гитлера. 23 августа 1944 король Румынии Михай I сместил с должности премьер-министра и объявил, что Румыния встает на сторону Антигитлеровской коалиции.
    Релиз от: alf62
    Продолжительность: 00: 43: 58
    Качество видео: HDTVRip
    Перевод: Документальный дубляж (голос рассказчика - дубляж, интервью - одноголосый закадровый перевод)
    Субтитры: Английские на румынскую речь (вшитые)
    Видео: Xvid, 720x400, ~1900 Kbps
    Аудио: AC3, 2 ch, 192 Kbps

    Общее
    Полное имя : D: ЗаписьКороль, обманувший ГитлераКороль.обманувший.Гитлера.2016XviD.HDTVRip.alf62.avi
    Формат : AVI
    Формат/Информация : Audio Video Interleave
    Размер файла : 661 Мбайт
    Продолжительность : 43 м.
    Общий поток : 2101 Кбит/сек
    Программа кодирования : VirtualDubMod 1.5.10.3 |www.virtualdub-fr.org|| (build 2550/release)
    Библиотека кодирования : VirtualDubMod build 2550/release
    Видео
    Идентификатор : 0
    Формат : MPEG-4 Visual
    Профиль формата : Advanced Simple@L5
    Параметр BVOP формата : 2
    Параметр QPel формата : Нет
    Параметр GMC формата : Без точки перехода
    Параметр матрицы формата : Default (MPEG)
    Идентификатор кодека : XVID
    Идентификатор кодека/Подсказка : XviD
    Продолжительность : 43 м.
    Битрейт : 1900 Кбит/сек
    Ширина : 720 пикселей
    Высота : 400 пикселей
    Соотношение сторон : 16: 9
    Частота кадров : 25, 000 кадров/сек
    Цветовое пространство : YUV
    Субдискретизация насыщенности : 4: 2: 0
    Битовая глубина : 8 бит
    Тип развёртки : Прогрессивная
    Метод сжатия : С потерями
    Бит/(Пиксели*Кадры) : 0.264
    Размер потока : 597 Мбайт (90%)
    Библиотека кодирования : XviD 73
    Аудио
    Идентификатор : 1
    Формат : AC-3
    Формат/Информация : Audio Coding 3
    Расширение режима : CM (complete main)
    Параметр Endianness формата : Big
    Идентификатор кодека : 2000
    Продолжительность : 43 м.
    Вид битрейта : Постоянный
    Битрейт : 192 Кбит/сек
    Каналы : 2 канала
    Расположение каналов : Front: L R
    Частота : 48, 0 КГц
    Частота кадров : 31, 250 кадров/сек (1536 spf)
    Метод сжатия : С потерями
    Размер потока : 60, 4 Мбайт (9%)
    Выравнивание : Разделение по промежуткам
    Продолжительность промежутка : 40 мс. (1, 00 видеокадр)
    Время предзагрузки промежутка : 500 мс.

    Скриншоты для ознакомления






    Все одноименные релизы в Клубе
    Время раздачи: до появления первых 3-5 скачавших


    Король, обманувший Гитлера/The King Who Tricked Hitler (2016) HDTVRip
    Рейтинг →
     (голосов: 1, оценка 3/5, голосовать можно 1 раз )

    Другие торренты по теме:

  • Король, обманувший Гитлера / The King Who Tricked Hitler (2016) HDTVRip [H.264 / 720p-LQ]


    • Комментарии (0):

      Информация

      Информация

        Посетители, находящиеся в группе Гости, не могут оставлять комментарии в данной новости.

        ↓ Меню




        ↓ Опрос

        Вы добавили сайт в закладки?
        Да
        Нет


        Top 10 за месяц (Передачи)