.
Авторизация | Регистрация
Хочешь лучшие торренты? Добавь свой email!
Добавить

Торрент скачать бесплатно

  • support: webmaster@btracker.club
» » BBC. Вся правда об акулах / Shark (2015) BDRip [H.264 / 1080p] (серии 2 из 2) торрент скачать бесплатно


    BBC. Вся правда об акулах / Shark (2015) BDRip [H.264 / 1080p] (серии 2 из 2) торрент скачать бесплатно

    Опубликовал: fregat | Дата: 25-02-2019, 05:00 | .torrent скачали: 2

    BBC. Вся правда об акулах / Shark (2015) BDRip [H.264 / 1080p] (серии 2 из 2)Производство: Великобритания, BBC
    Жанр: Документальный, природа, флора, фауна
    Режиссер: Стив Гринвуд, Саймон Блэкени
    Участники: Пол МакГанн

    Описание

    Этот сериал об акулах снимался в десятке мест по всему миру — начиная от полярных льдов и заканчивая тропическими коралловыми рифами. Вы увидите все многообразие и пугающую красоту акульего мира, узнаете о причинах их агрессивности и других аспектах поведения. Даже ухаживания не останутся незамеченными. Сериал наполнен зрелищными кадрами, снятыми на высокоскоростные камеры с вертолетов и под водой.
    Релиз от: Dimanchez
    Продолжительность: 2 x ~00: 50: 00
    Качество видео: BDRip
    Перевод: Одноголосый закадровый, профессиональный (Видеофильм-ТВ)
    Субтитры: отсутствуют
    Видео: AVC/H.264, 1920x1080, ~9490 Kbps
    Аудио#1: AC3, 2 ch, 160 Kbps | Русский
    Аудио#2: AC3, 2 ch, 192 Kbps | Английский

    Общее
    Уникальный идентификатор : 312904782976322112573180834939015127925 (0xEB6744E58C064FA907E02E92D1CDE375)
    Полное имя : F: КИНОBBC.Earth.Shark.E01E02.2015.BluRayRip.1080p.x264.Rus.EngBBC.Earth.Shark.E01.2015.BluRayRip.1080p.x264.Rus.Eng.mkv
    Формат : Matroska
    Версия формата : Version 4
    Размер файла : 3, 33 Гбайт
    Продолжительность : 48 м. 26 с.
    Общий поток : 9844 Кбит/сек
    Дата кодирования : UTC 2019-02-15 02: 52: 59
    Программа кодирования : mkvmerge v31.0.0 (\'Dolores In A Shoestand\') 32-bit
    Библиотека кодирования : libebml v1.3.6 + libmatroska v1.4.9
    Видео
    Идентификатор : 1
    Формат : AVC
    Формат/Информация : Advanced Video Codec
    Профиль формата : High@L4.1
    Настройки формата : CABAC/4 Ref Frames
    Параметр CABAC формата : Да
    Параметр RefFrames формата : 4 кадра
    Идентификатор кодека : V_MPEG4/ISO/AVC
    Продолжительность : 48 м. 26 с.
    Битрейт : 9490 Кбит/сек
    Ширина : 1920 пикселей
    Высота : 1080 пикселей
    Соотношение сторон : 16: 9
    Режим частоты кадров : Постоянный
    Частота кадров : 25, 000 кадров/сек
    Цветовое пространство : YUV
    Субдискретизация насыщенности : 4: 2: 0
    Битовая глубина : 8 бит
    Тип развёртки : Прогрессивная
    Бит/(Пиксели*Кадры) : 0.183
    Размер потока : 3, 21 Гбайт (96%)
    Библиотека кодирования : x264 core 148 r2665 a01e339
    Настройки программы : cabac=1/ref=4/deblock=1: 0: 0/analyse=0x3: 0x113/me=umh/subme=8/psy=1/psy_rd=1.00: 0.00/mixed_ref=1/me_range=16/chroma_me=1/trellis=1/8x8dct=1/cqm=0/deadzone=21, 11/fast_pskip=0/chroma_qp_offset=-2/threads=12/lookahead_threads=2/sliced_threads=0/nr=0/decimate=1/interlaced=0/bluray_compat=0/constrained_intra=0/bframes=3/b_pyramid=2/b_adapt=2/b_bias=0/direct=3/weightb=1/open_gop=0/weightp=2/keyint=250/keyint_min=25/scenecut=40/intra_refresh=0/rc_lookahead=50/rc=2pass/mbtree=1/bitrate=9490/ratetol=1.0/qcomp=0.60/qpmin=0/qpmax=69/qpstep=4/cplxblur=20.0/qblur=0.5/ip_ratio=1.40/aq=1: 1.00
    Default : Да
    Forced : Нет
    Аудио #1
    Идентификатор : 2
    Формат : AC-3
    Формат/Информация : Audio Coding 3
    Коммерческое название : Dolby Digital
    Идентификатор кодека : A_AC3
    Продолжительность : 48 м. 25 с.
    Вид битрейта : Постоянный
    Битрейт : 160 Кбит/сек
    Каналы : 2 канала
    Channel layout : L R
    Частота : 48, 0 КГц
    Частота кадров : 31, 250 кадров/сек (1536 SPF)
    Битовая глубина : 16 бит
    Метод сжатия : С потерями
    Размер потока : 55, 4 Мбайт (2%)
    Заголовок : DD 2.0 VO @ fixed by Dimanchez
    Язык : Russian
    ServiceKind/String : Complete Main
    Default : Да
    Forced : Нет
    Аудио #2
    Идентификатор : 3
    Формат : AC-3
    Формат/Информация : Audio Coding 3
    Коммерческое название : Dolby Digital
    Идентификатор кодека : A_AC3
    Продолжительность : 48 м. 25 с.
    Вид битрейта : Постоянный
    Битрейт : 192 Кбит/сек
    Каналы : 2 канала
    Channel layout : L R
    Частота : 48, 0 КГц
    Частота кадров : 31, 250 кадров/сек (1536 SPF)
    Битовая глубина : 16 бит
    Метод сжатия : С потерями
    Размер потока : 66, 5 Мбайт (2%)
    Заголовок : English
    Язык : English
    ServiceKind/String : Complete Main
    Default : Нет
    Forced : Нет


    BBC. Вся правда об акулах/Shark (2015) BDRip [H.264/1080p] (серии 2 из 2)
    Рейтинг →
     (голосов: 1, оценка 3/5, голосовать можно 1 раз )

    Другие торренты по теме:

  • Правда о кошках и собаках / The Truth About Cats & Dogs (1996) BDRip
  • Л. А. Сердобольская (сост.) | Правда о сектантстве. Сборник рассказов бывших сектантов (1962) [DJVU]
  • А. В. Козлов | Вся правда об Украинской повстанческой армии [УПА] (2014) [DJVU, PDF]
  • Дэн Ариели | Вся правда о неправде. Почему и как мы обманываем (2013) [FB2] скачать через торрент бесплатно
  • History Channel. Мифы и правда о Карле Великом / Karl der Grosse (Der Kampf um den Thron) (2013) HDTVRip [H.264 / 720p] (1-3 серия из 3)
  • Научный детектив. Правда о долларе (29.11.2014) SATRip
  • Линия защиты. Голая правда (2014.12.03) SATRip скачать через торрент бесплатно
  • Научный детектив. Правда о рубле (06.12.2014) SATRip


    • Комментарии (0):

      Информация

      Информация

        Посетители, находящиеся в группе Гости, не могут оставлять комментарии в данной новости.

        ↓ Меню




        ↓ Опрос

        Вы добавили сайт в закладки?
        Да
        Нет


        Top 10 за месяц (Передачи)