.
Авторизация | Регистрация

Торрент скачать бесплатно

  • support: webmaster@btracker.club
» » Футбол. Лига Чемпионов УЕФА 2018-2019. 1 / 8 Финала. Обзор первых матчей. 3 и 4-й День (20.02.2019) IPTVRip [H.264 / 720p-LQ] [hand made 50fps] торрент скачать бесплатно


    Футбол. Лига Чемпионов УЕФА 2018-2019. 1 / 8 Финала. Обзор первых матчей. 3 и 4-й День (20.02.2019) IPTVRip [H.264 / 720p-LQ] [hand made 50fps] торрент скачать бесплатно

    Дата: 24-02-2019, 05:00 | .torrent скачали: 0

    Футбол. Лига Чемпионов УЕФА 2018-2019. 1 / 8 Финала. Обзор первых матчей. 3 и 4-й День (20.02.2019) IPTVRip [H.264 / 720p-LQ] [hand made 50fps]Телекомпания: Матч! Футбол 1 HD
    Жанр: Спорт
    Комментатор: Станислав Минин

    Описание
    20 февраля 2019, среда
    Обзор матчей Лиги Чемпионов УЕФА 2018-2019. Плей-офф.
    1/8 Финала. Первые матчи
    3-й День:
    Лион (Франция) — Барселона (Испания)
    Ливерпуль (Англия) — Бавария (Германия)
    4-й День:
    Шальке-04 (Германия) — Манчестер Сити (Англия)
    Атлетико М (Испания) — Ювентус (Италия)
    Релиз от: Вайделот
    Продолжительность: 00: 24: 31
    Качество видео: IPTVRip
    Язык озвучки: Русский
    Субтитры: отсутствуют
    Видео: AVC/H.264, 1280x720 (16: 9), ~3658 Kbps, 50 fps
    Аудио: AC3, 2 ch, 48 kHz, 128 Kbps

    Общее
    Уникальный идентификатор : 102695282057983416567245501268129909982 (0x4D426452A8B4ACD0A6364A2128468CDE)
    Полное имя : F: SPORTФутболЛига Чемпионов 2018-2019ЛЧ 2018-19. 1-8 финала. Первые матчи. 3-4 день. Обзор (20.02.2019) IPTVRip 720p by Vaidelot.mkv
    Формат : Matroska
    Версия формата : Version 4
    Размер файла : 678 Мбайт
    Продолжительность : 24 м. 31 с.
    Общий поток : 3863 Кбит/сек
    Программа кодирования : XviD4PSP 8.0.27
    Библиотека кодирования : Lavf58.20.100
    ErrorDetectionType : Per level 1
    ENCODING_INFO : MATROSKA, WEBM MKV 720p
    Видео
    Идентификатор : 1
    Формат : AVC
    Формат/Информация : Advanced Video Codec
    Профиль формата : High@L3.2
    Настройки формата : CABAC/4 Ref Frames
    Параметр CABAC формата : Да
    Параметр RefFrames формата : 4 кадра
    Идентификатор кодека : V_MPEG4/ISO/AVC
    Продолжительность : 24 м. 31 с.
    Битрейт : 3658 Кбит/сек
    Номинальный битрейт : 4000 Кбит/сек
    Ширина : 1280 пикселей
    Высота : 720 пикселей
    Соотношение сторон : 16: 9
    Режим частоты кадров : Постоянный
    Частота кадров : 50, 000 кадров/сек
    Цветовое пространство : YUV
    Субдискретизация насыщенности : 4: 2: 0
    Битовая глубина : 8 бит
    Тип развёртки : Прогрессивная
    Бит/(Пиксели*Кадры) : 0.079
    Размер потока : 642 Мбайт (95%)
    Библиотека кодирования : x264 core 157 r2935 545de2f
    Настройки программы : cabac=1/ref=3/deblock=1: -2: -2/analyse=0x3: 0x133/me=hex/subme=7/psy=1/psy_rd=1.00: 0.20/mixed_ref=1/me_range=16/chroma_me=1/trellis=1/8x8dct=1/cqm=0/deadzone=21, 11/fast_pskip=1/chroma_qp_offset=-3/threads=5/lookahead_threads=1/sliced_threads=0/nr=0/decimate=1/interlaced=0/bluray_compat=0/constrained_intra=0/bframes=3/b_pyramid=2/b_adapt=2/b_bias=0/direct=3/weightb=1/open_gop=0/weightp=2/keyint=500/keyint_min=50/scenecut=40/intra_refresh=0/rc_lookahead=40/rc=cbr/mbtree=1/bitrate=4000/ratetol=1.0/qcomp=0.60/qpmin=0/qpmax=69/qpstep=4/vbv_maxrate=4000/vbv_bufsize=2857/nal_hrd=none/filler=0/ip_ratio=1.40/aq=1: 1.00
    Default : Да
    Forced : Нет
    Цветовой диапазон : Limited
    Основные цвета : BT.709
    Характеристики трансфера : BT.709
    Коэффициенты матрицы : BT.709
    ENCODING_INFO : H264 X264 CBR 4000kbps HQ
    Аудио
    Идентификатор : 2
    Формат : AC-3
    Формат/Информация : Audio Coding 3
    Коммерческое название : Dolby Digital
    Идентификатор кодека : A_AC3
    Продолжительность : 24 м. 31 с.
    Вид битрейта : Постоянный
    Битрейт : 128 Кбит/сек
    Каналы : 2 канала
    Channel layout : L R
    Частота : 48, 0 КГц
    Частота кадров : 31, 250 кадров/сек (1536 SPF)
    Битовая глубина : 16 бит
    Метод сжатия : С потерями
    Размер потока : 22, 5 Мбайт (3%)
    ServiceKind/String : Complete Main
    Default : Да
    Forced : Нет
    ENCODING_INFO : AAC-LC AC3 CBR 128kbps

    Скриншоты для ознакомления



    Все одноименные релизы в Клубе
    Время раздачи: 24/7 (до 1 месяца)


    Футбол. Лига Чемпионов УЕФА 2018-2019. 1/8 Финала. Обзор первых матчей. 3 и 4-й День (20.02.2019) IPTVRip [H.264/720p-LQ] [hand made 50fps]
    Рейтинг →
     (голосов: 1, оценка 3/5, голосовать можно 1 раз )

    Другие торренты по теме:

  • Футбол. Лига Наций УЕФА 2018-2019. Лига B. Группа 1. 1-й тур. Чехия — Украина (06.09.2018) IPTVRip [H.264 / 1080p-LQ]
  • Футбол. Лига Наций УЕФА 2018-2019. Лига A. Группа 1. 1-й тур. Германия — Франция (06.09.2018) HDTVRip [H.264 / 720p-LQ] [hand made 50fps]
  • Футбол. Лига Наций УЕФА 2018-2019. Лига D. Группа 4. 1-й тур. Армения — Лихтенштейн (06.09.2018) HDTVRip [H.264 / 720p-LQ] [hand made 50fps]
  • Футбол. Лига Наций УЕФА 2018-2019. Лига D. Группа 1. 1-й тур. Казахстан — Грузия (06.09.2018) HDTVRip [H.264 / 720p-LQ] [hand made 50fps]
  • Футбол. Лига Наций УЕФА 2018-2019. Лига A. Группа 3. 1-й тур. Италия — Польша (07.09.2018) HDTVRip [H.264 / 720p-LQ] [hand made 50fps]
  • Футбол. Лига Наций УЕФА 2018-2019. Лига B. Группа 2. 1-й тур. Турция — Россия (07.09.2018) IPTVRip [H.264 / 1080p-LQ]
  • Футбол. Лига Наций УЕФА 2018-2019. Лига B. Группа 2. 1-й тур. Турция — Россия (07.09.2018) HDTVRip [H.264 / 720p-LQ] [hand made 50fps]
  • Футбол. Лига Наций УЕФА 2018-2019. Лига D. Группа 3. 1-й тур. Азербайджан — Косово (07.09.2018) IPTVRip [H.264 / 1080p-LQ]


    • Комментарии (0):

      Информация

      Информация

        Посетители, находящиеся в группе Гости, не могут оставлять комментарии в данной новости.

        ↓ Меню




        ↓ Опрос

        Вы добавили сайт в закладки?
        Да
        Нет


        Top 10 за месяц (Передачи)