.
Авторизация | Регистрация

Торрент скачать бесплатно

  • support: webmaster@btracker.club
» » Футбол. Лига Европы УЕФА 2018-2019. 1 / 16 Финала. 2-й матч. Наполи (Италия) — Цюрих (Швейцария) (21.02.2019) HDTVRip [H.264 / 720p-LQ] [hand made 50fps] торрент скачать бесплатно


    Футбол. Лига Европы УЕФА 2018-2019. 1 / 16 Финала. 2-й матч. Наполи (Италия) — Цюрих (Швейцария) (21.02.2019) HDTVRip [H.264 / 720p-LQ] [hand made 50fps] торрент скачать бесплатно

    Дата: 24-02-2019, 05:00 | .torrent скачали: 0

    Футбол. Лига Европы УЕФА 2018-2019. 1 / 16 Финала. 2-й матч. Наполи (Италия) — Цюрих (Швейцария) (21.02.2019) HDTVRip [H.264 / 720p-LQ] [hand made 50fps]Телекомпания: Матч! Футбол 2 HD
    Жанр: Спорт
    Комментатор: Александр Неценко

    Описание
    21 февраля 2019, четверг. 20: 55 МСК
    Лига Европы УЕФА 2017 - 2018. Плей-офф.
    1/16 Финала. 2-й матч.
    Наполи (Неаполь, Италия) — Цюрих (Цюрих, Швейцария)
    Стадион: Сан-Паоло (Неаполь, Италия), вместимость: 60240
    Главный судья: Анастасиос Сидиропулос (Греция)
    Ассистенты: Полихронис Костарас (Греция); Лазарос Димитриадис (Греция)
    Резервный: Дамианос Эфтимиадис (Греция)
    Релиз от: CSKAfan
    Продолжительность: 01: 53: 52
    Качество видео: HDTVRip
    Язык озвучки: Русский
    Субтитры: отсутствуют
    Видео: AVC/H.264, 1280x720 (16: 9), ~4040 Kbps, 50 fps
    Аудио: AC3, 2 ch, 48 kHz, 128 Kbps

    Общее
    Уникальный идентификатор : 231910329172915442852551132384019637117 (0xAE784E0339227ADEEECC9ED1C1C4637D)
    Полное имя : F: SPORTФутболЛига Европы 2018-2019Лига Европы 2019-20. 1.16 финала. 2-й матч. Наполи - Цюрих HDTVRip 720p rgfootball.net.mkv
    Формат : Matroska
    Версия формата : Version 2
    Размер файла : 3, 38 Гбайт
    Продолжительность : 1 ч. 53 м.
    Общий поток : 4252 Кбит/сек
    Программа кодирования : Lavf54.63.104
    Библиотека кодирования : Lavf54.63.104
    Видео
    Идентификатор : 1
    Формат : AVC
    Формат/Информация : Advanced Video Codec
    Профиль формата : High@L3.2
    Настройки формата : CABAC/4 Ref Frames
    Параметр CABAC формата : Да
    Параметр RefFrames формата : 4 кадра
    Параметр GOP формата : M=2, N=15
    Идентификатор кодека : V_MPEG4/ISO/AVC
    Продолжительность : 1 ч. 53 м.
    Битрейт : 4040 Кбит/сек
    Ширина : 1280 пикселей
    Высота : 720 пикселей
    Соотношение сторон : 16: 9
    Режим частоты кадров : Постоянный
    Частота кадров : 50, 000 кадров/сек
    Цветовое пространство : YUV
    Субдискретизация насыщенности : 4: 2: 0
    Битовая глубина : 8 бит
    Тип развёртки : Прогрессивная
    Бит/(Пиксели*Кадры) : 0.088
    Размер потока : 3, 21 Гбайт (95%)
    Default : Нет
    Forced : Нет
    Аудио
    Идентификатор : 2
    Формат : AC-3
    Формат/Информация : Audio Coding 3
    Коммерческое название : Dolby Digital
    Идентификатор кодека : A_AC3
    Продолжительность : 1 ч. 53 м.
    Вид битрейта : Постоянный
    Битрейт : 128 Кбит/сек
    Каналы : 2 канала
    Channel layout : L R
    Частота : 48, 0 КГц
    Частота кадров : 31, 250 кадров/сек (1536 SPF)
    Битовая глубина : 16 бит
    Метод сжатия : С потерями
    Размер потока : 104 Мбайт (3%)
    Язык : Russian
    ServiceKind/String : Complete Main
    Default : Да
    Forced : Нет

    Скриншоты для ознакомления



    Все одноименные релизы в Клубе
    Время раздачи: 24/7 (около 1 месяца)


    Футбол. Лига Европы УЕФА 2018-2019. 1/16 Финала. 2-й матч. Наполи (Италия) — Цюрих (Швейцария) (21.02.2019) HDTVRip [H.264/720p-LQ] [hand made 50fps]
    Рейтинг →
     (голосов: 1, оценка 4/5, голосовать можно 1 раз )

    Другие торренты по теме:

  • Футбол. Лига Наций УЕФА 2018-2019. Лига B. Группа 1. 1-й тур. Чехия — Украина (06.09.2018) IPTVRip [H.264 / 1080p-LQ]
  • Футбол. Лига Наций УЕФА 2018-2019. Лига A. Группа 1. 1-й тур. Германия — Франция (06.09.2018) HDTVRip [H.264 / 720p-LQ] [hand made 50fps]
  • Футбол. Лига Наций УЕФА 2018-2019. Лига D. Группа 4. 1-й тур. Армения — Лихтенштейн (06.09.2018) HDTVRip [H.264 / 720p-LQ] [hand made 50fps]
  • Футбол. Лига Наций УЕФА 2018-2019. Лига D. Группа 1. 1-й тур. Казахстан — Грузия (06.09.2018) HDTVRip [H.264 / 720p-LQ] [hand made 50fps]
  • Футбол. Лига Наций УЕФА 2018-2019. Лига A. Группа 3. 1-й тур. Италия — Польша (07.09.2018) HDTVRip [H.264 / 720p-LQ] [hand made 50fps]
  • Футбол. Лига Наций УЕФА 2018-2019. Лига B. Группа 2. 1-й тур. Турция — Россия (07.09.2018) IPTVRip [H.264 / 1080p-LQ]
  • Футбол. Лига Наций УЕФА 2018-2019. Лига B. Группа 2. 1-й тур. Турция — Россия (07.09.2018) HDTVRip [H.264 / 720p-LQ] [hand made 50fps]
  • Футбол. Лига Наций УЕФА 2018-2019. Лига D. Группа 3. 1-й тур. Азербайджан — Косово (07.09.2018) IPTVRip [H.264 / 1080p-LQ]


    • Комментарии (0):

      Информация

      Информация

        Посетители, находящиеся в группе Гости, не могут оставлять комментарии в данной новости.

        ↓ Меню




        ↓ Опрос

        Вы добавили сайт в закладки?
        Да
        Нет


        Top 10 за месяц (Передачи)