.
Авторизация | Регистрация
Хочешь лучшие торренты? Добавь свой email!
Добавить

Торрент скачать бесплатно

  • support: webmaster@btracker.club
» » Футбол. Лига Европы УЕФА 2018-2019. 1 / 16 Финала. 2-й матч. Айнтрахт Ф (Германия) — Шахтёр Д (Украина) (21.02.2019) HDTVRip [H.264 / 720p-LQ] [hand made 50fps][UKR] торрент скачать бесплатно


    Футбол. Лига Европы УЕФА 2018-2019. 1 / 16 Финала. 2-й матч. Айнтрахт Ф (Германия) — Шахтёр Д (Украина) (21.02.2019) HDTVRip [H.264 / 720p-LQ] [hand made 50fps][UKR] торрент скачать бесплатно

    Опубликовал: fregat | Дата: 24-02-2019, 05:00 | .torrent скачали: 0

    Футбол. Лига Европы УЕФА 2018-2019. 1 / 16 Финала. 2-й матч. Айнтрахт Ф (Германия) — Шахтёр Д (Украина) (21.02.2019) HDTVRip [H.264 / 720p-LQ] [hand made 50fps][UKR]Телекомпания: Украина, Футбол 1 HD
    Жанр: Спорт
    Комментатор: Виктор Вацко

    Описание
    21 февраля 2019, четверг. 20: 55 МСК
    Лига Европы УЕФА 2017 - 2018. Плей-офф.
    1/16 Финала. 2-й матч.
    Айнтрахт (Франкфурт-на-Майне, Германия) — Шахтёр(Донецк, Украина)
    Стадион: Коммерцбанк-Арена (Франкфурт, Германия), вместимость: 52300
    Главный судья: Матеу Лаос (Испания)
    Ассистенты: Пау Себрьян Девис (Испания); Роберто Диас Перес Дель Паломар (Испания)
    Резервный: Теодоро Собрино Маган (Испания)
    Релиз от: Dav7dbecks
    Продолжительность: 01: 47: 18
    Качество видео: HDTVRip
    Язык озвучки: Украинский
    Субтитры: отсутствуют
    Видео: AVC/H.264, 1280x720 (16: 9), ~3987 Kbps, 50 fps
    Аудио: AC3, 2 ch, 48 kHz, 128 Kbps

    Общее
    Уникальный идентификатор : 2500075202627074333638188370570065852 (0x1E17F396641B2B8BCF90B2D51F137BC)
    Полное имя : F: SPORTФутболЛига Европы 2018-20192019.02.21_UEFA EL 18-19.R 32.Second leg.Eintracht(Germany) - Shakhtar(Ukraine)_720p_UKR.mkv
    Формат : Matroska
    Версия формата : Version 4
    Размер файла : 3, 09 Гбайт
    Продолжительность : 1 ч. 47 м.
    Общий поток : 4119 Кбит/сек
    Дата кодирования : UTC 2019-02-23 18: 29: 46
    Программа кодирования : mkvmerge v31.0.0 (\'Dolores In A Shoestand\') 64-bit
    Библиотека кодирования : libebml v1.3.6 + libmatroska v1.4.9
    Видео
    Идентификатор : 1
    Формат : AVC
    Формат/Информация : Advanced Video Codec
    Профиль формата : High@L4.1
    Настройки формата : CABAC/4 Ref Frames
    Параметр CABAC формата : Да
    Параметр RefFrames формата : 4 кадра
    Идентификатор кодека : V_MPEG4/ISO/AVC
    Продолжительность : 1 ч. 47 м.
    Битрейт : 3987 Кбит/сек
    Ширина : 1280 пикселей
    Высота : 720 пикселей
    Соотношение сторон : 16: 9
    Режим частоты кадров : Постоянный
    Частота кадров : 50, 000 кадров/сек
    Цветовое пространство : YUV
    Субдискретизация насыщенности : 4: 2: 0
    Битовая глубина : 8 бит
    Тип развёртки : Прогрессивная
    Бит/(Пиксели*Кадры) : 0.087
    Размер потока : 2, 99 Гбайт (97%)
    Default : Да
    Forced : Нет
    Аудио
    Идентификатор : 2
    Формат : AC-3
    Формат/Информация : Audio Coding 3
    Коммерческое название : Dolby Digital
    Идентификатор кодека : A_AC3
    Продолжительность : 1 ч. 47 м.
    Вид битрейта : Постоянный
    Битрейт : 128 Кбит/сек
    Каналы : 2 канала
    Channel layout : L R
    Частота : 48, 0 КГц
    Частота кадров : 31, 250 кадров/сек (1536 SPF)
    Битовая глубина : 16 бит
    Метод сжатия : С потерями
    Размер потока : 98, 2 Мбайт (3%)
    Язык : Ukrainian
    ServiceKind/String : Complete Main
    Default : Да
    Forced : Нет

    Скриншоты для ознакомления



    Все одноименные релизы в Клубе
    Время раздачи: 24/7 (около 1 месяца)


    Футбол. Лига Европы УЕФА 2018-2019. 1/16 Финала. 2-й матч. Айнтрахт Ф (Германия) — Шахтёр Д (Украина) (21.02.2019) HDTVRip [H.264/720p-LQ] [hand made 50fps][UKR]
    Рейтинг →
     (голосов: 1, оценка 5/5, голосовать можно 1 раз )

    Другие торренты по теме:

  • Футбол. Лига Наций УЕФА 2018-2019. Лига B. Группа 1. 1-й тур. Чехия — Украина (06.09.2018) IPTVRip [H.264 / 1080p-LQ]
  • Футбол. Лига Наций УЕФА 2018-2019. Лига A. Группа 1. 1-й тур. Германия — Франция (06.09.2018) HDTVRip [H.264 / 720p-LQ] [hand made 50fps]
  • Футбол. Лига Наций УЕФА 2018-2019. Лига D. Группа 4. 1-й тур. Армения — Лихтенштейн (06.09.2018) HDTVRip [H.264 / 720p-LQ] [hand made 50fps]
  • Футбол. Лига Наций УЕФА 2018-2019. Лига D. Группа 1. 1-й тур. Казахстан — Грузия (06.09.2018) HDTVRip [H.264 / 720p-LQ] [hand made 50fps]
  • Футбол. Лига Наций УЕФА 2018-2019. Лига A. Группа 3. 1-й тур. Италия — Польша (07.09.2018) HDTVRip [H.264 / 720p-LQ] [hand made 50fps]
  • Футбол. Лига Наций УЕФА 2018-2019. Лига B. Группа 2. 1-й тур. Турция — Россия (07.09.2018) IPTVRip [H.264 / 1080p-LQ]
  • Футбол. Лига Наций УЕФА 2018-2019. Лига B. Группа 2. 1-й тур. Турция — Россия (07.09.2018) HDTVRip [H.264 / 720p-LQ] [hand made 50fps]
  • Футбол. Лига Наций УЕФА 2018-2019. Лига D. Группа 3. 1-й тур. Азербайджан — Косово (07.09.2018) IPTVRip [H.264 / 1080p-LQ]


    • Комментарии (0):

      Информация

      Информация

        Посетители, находящиеся в группе Гости, не могут оставлять комментарии в данной новости.

        ↓ Меню




        ↓ Опрос

        Вы добавили сайт в закладки?
        Да
        Нет


        Top 10 за месяц (Передачи)