.
Авторизация | Регистрация
Хочешь лучшие торренты? Добавь свой email!
Добавить

Торрент скачать бесплатно

  • support: webmaster@btracker.club
» » Голос. Дети (2019.02.22) HDTV [H.264 / 1080i-LQ] (сезон 6, выпуск 2) торрент скачать бесплатно


    Голос. Дети (2019.02.22) HDTV [H.264 / 1080i-LQ] (сезон 6, выпуск 2) торрент скачать бесплатно

    Опубликовал: fregat | Дата: 24-02-2019, 05:00 | .torrent скачали: 0

    Голос. Дети (2019.02.22) HDTV [H.264 / 1080i-LQ] (сезон 6, выпуск 2)Телекомпания: Первый канал HD
    Жанр: ТВ-шоу
    Наставники: Валерий Меладзе, Пелагея, Светлана Лобода
    Ведущий: Дмитрий Нагиев, Аглая Шиловская

    Описание

    C 15 февраля в шоу Голос дети новые наставники. В этот раз ими выступят Валерий Меладзе, Пелагея и Светлана Лобода. В шестом сезон любимого сериалае будут участвовать вокалисты, возраст которых не превышает 14 лет. В кастинге принимали участие не только российские, но и зарубежные вокалисты. В слепых прослушиваниях будет участвовать примерно 120 человек. В процессе слепых прослушиваний каждому из наставников нужно будет набрать команду из 15 человек. Во время поединков эти команды разобьют на тройки и из каждой тройки в следующий этап сможет попасть лишь один конкурсант.
    Релиз от: GeneralFilm, olegka7373
    Продолжительность: 01: 31: 28
    Качество видео: HDTV
    Субтитры: отсутствуют
    Видео: AVC/H.264, 1920x1080, ~8073 Kbps
    Аудио: AC3, 6 ch, 384 Kbps
    Аудио: MP2, 2 ch, 192 Kbps

    Общее
    Идентификатор : 1 (0x1)
    Полное имя : K: golosD2.Golos.Deti.6.sezon.2019.HDTV(1080i).GeneralFilm.ts
    Формат : MPEG-TS
    Размер файла : 5, 82 Гбайт
    Продолжительность : 1 ч. 31 м.
    Режим общего битрейта : Переменный
    Общий поток : 9104 Кбит/сек
    Видео
    Идентификатор : 1904 (0x770)
    Идентификатор меню : 80 (0x50)
    Формат : AVC
    Формат/Информация : Advanced Video Codec
    Профиль формата : High@L4
    Настройки формата : CABAC/3 Ref Frames
    Параметр CABAC формата : Да
    Параметр RefFrames формата : 3 кадра
    Идентификатор кодека : 27
    Продолжительность : 1 ч. 31 м.
    Битрейт : 8073 Кбит/сек
    Ширина : 1920 пикселей
    Высота : 1080 пикселей
    Соотношение сторон : 16: 9
    Частота кадров : 25, 000 кадров/сек
    Стандарт вещания : Component
    Цветовое пространство : YUV
    Субдискретизация насыщенности : 4: 2: 0
    Битовая глубина : 8 бит
    Тип развёртки : Чересстрочная
    Метод сохранения типа развёртки : Раздельные поля
    Порядок развёртки : Верхнее поле первое
    Бит/(Пиксели*Кадры) : 0.156
    Размер потока : 5, 16 Гбайт (89%)
    Цветовой диапазон : Limited
    Основные цвета : BT.709
    Характеристики трансфера : BT.709
    Коэффициенты матрицы : BT.709
    Аудио #1
    Идентификатор : 2904 (0xB58)
    Идентификатор меню : 80 (0x50)
    Формат : AC-3
    Формат/Информация : Audio Coding 3
    Коммерческое название : Dolby Digital
    Идентификатор кодека : 6
    Продолжительность : 1 ч. 31 м.
    Вид битрейта : Постоянный
    Битрейт : 384 Кбит/сек
    Каналы : 6 каналов
    Channel layout : L R C LFE Ls Rs
    Частота : 48, 0 КГц
    Частота кадров : 31, 250 кадров/сек (1536 SPF)
    Битовая глубина : 16 бит
    Метод сжатия : С потерями
    Задержка видео : -120 мс.
    Размер потока : 251 Мбайт (4%)
    Язык : Russian
    ServiceKind/String : Complete Main
    Аудио #2
    Идентификатор : 2905 (0xB59)
    Идентификатор меню : 80 (0x50)
    Формат : MPEG Audio
    Версия формата : Version 1
    Профиль формата : Layer 2
    Идентификатор кодека : 3
    Продолжительность : 1 ч. 31 м.
    Вид битрейта : Постоянный
    Битрейт : 192 Кбит/сек
    Каналы : 2 канала
    Частота : 48, 0 КГц
    Частота кадров : 41, 667 кадра/сек (1152 SPF)
    Метод сжатия : С потерями
    Задержка видео : -120 мс.
    Размер потока : 126 Мбайт (2%)
    Язык : Russian

    Скриншоты для ознакомления



    Все одноименные релизы в Клубе
    Время раздачи: с 13: 00 до 01: 00 (до появления первых 3-5 скачавших)


    Голос. Дети (2019.02.22) HDTV [H.264/1080i-LQ] (сезон 6, выпуск 2)
    Рейтинг →
     (голосов: 1, оценка 5/5, голосовать можно 1 раз )

    Другие торренты по теме:

  • Голос. Дети. Сезон №2. Выпуск №1 (2015.02.13) HDTVRip [H.264 / 720p-LQ] скачать через торрент бесплатно
  • Голос. Дети. Сезон №2. Выпуск №1 (2015.02.13) HDTV [H.264 / 1080i] скачать через торрент бесплатно
  • Голос. Дети. Сезон №2. Выпуск №1 (2015.02.13) SATRip скачать через торрент бесплатно
  • Голос. Дети. Сезон №2. Выпуск №2 (2015.02.20) HDTV [H.264 / 1080i] скачать через торрент бесплатно
  • Голос. Дети. Сезон №2. Выпуск №2 (2015.02.20) SATRip скачать через торрент бесплатно
  • Голос. Дети. Сезон №2. Выпуск №2 (2015.02.21) HDTVRip [H.264 / 720p-LQ]
  • Голос. Дети. Сезон №2. Лучшее (2015.04.24) SATRip скачать через торрент бесплатно
  • Голос. Дети (2016.02.20) HDTV [H.264 / 1080i] (сезон 3, выпуск 1)


    • Комментарии (0):

      Информация

      Информация

        Посетители, находящиеся в группе Гости, не могут оставлять комментарии в данной новости.

        ↓ Меню




        ↓ Опрос

        Вы добавили сайт в закладки?
        Да
        Нет


        Top 10 за месяц (Передачи)