.
Авторизация | Регистрация

Торрент скачать бесплатно

  • support: webmaster@btracker.club
» » BBC. Экспедиция в Бирму / Expedition Burma (2011) BDRemux [H.264 / 1080p] (серии 1-3 из 3) торрент скачать бесплатно


    BBC. Экспедиция в Бирму / Expedition Burma (2011) BDRemux [H.264 / 1080p] (серии 1-3 из 3) торрент скачать бесплатно

    Дата: 24-02-2019, 05:00 | .torrent скачали: 2

    BBC. Экспедиция в Бирму / Expedition Burma (2011) BDRemux [H.264 / 1080p] (серии 1-3 из 3)Производство: Великобритания, BBC
    Жанр: Документальный, природа, флора, фауна
    Режиссер: Марк Вилер, Анвар Мамон

    Описание

    Считается, что Бирма является настоящей сокровищницей мира дикой природы. Тем не менее, из-за многолетнего правления военной диктатуры непроходимые джунгли до сих пор оставались нетронутыми и полными тайн. Впервые в истории команда ученных и специалистов в области дикой природы отправляется на экспедицию в эту неизведанную и загадочную страну. Они попытаются узнать, являются ли местные леса последним местом обитания некоторых редких животных, которые находятся под угрозой исчезновения в других уголках планеты.
    Релиз от: DaVinci (Nature)
    Продолжительность: 3 x ~00: 52: 00
    Качество видео: BDRemux
    Перевод: Одноголосый закадровый, профессиональный (SDI Media)
    Субтитры: отсутствуют
    Видео: AVC/H.264, 1920x1080, ~19.2 Mbps
    Аудио#1: AC3, 2 ch, 192 Kbps | Русский (читал: Роман Антонович)
    Аудио#2: AC3, 2 ch, 640 Kbps | Английский

    Общее
    Уникальный идентификатор : 219035735944983489322050131136616026787 (0xA4C8BF8EEED6AA2FB95A3498109752A3)
    Полное имя : F: КИНОExpedition.Burma.(2013).1080p.BD-Remux.Rus.Eng-BLUEBIRDS01E02.Rus.Eng-BLUEBIRD.mkv
    Формат : Matroska
    Версия формата : Version 4
    Размер файла : 6, 89 Гбайт
    Продолжительность : 52 м. 21 с.
    Режим общего битрейта : Переменный
    Общий поток : 18, 0 Мбит/сек
    Дата кодирования : UTC 2019-02-15 21: 22: 34
    Программа кодирования : mkvmerge v8.0.0 (\'Til The Day That I Die\') 32bit
    Библиотека кодирования : libebml v1.3.1 + libmatroska v1.4.2
    Видео
    Идентификатор : 1
    Формат : AVC
    Формат/Информация : Advanced Video Codec
    Профиль формата : High@L4.1
    Настройки формата : CABAC/4 Ref Frames
    Параметр CABAC формата : Да
    Параметр RefFrames формата : 4 кадра
    Идентификатор кодека : V_MPEG4/ISO/AVC
    Продолжительность : 52 м. 21 с.
    Вид битрейта : Переменный
    Битрейт : 18, 0 Мбит/сек
    Максимальный битрейт : 34, 0 Мбит/сек
    Ширина : 1920 пикселей
    Высота : 1080 пикселей
    Соотношение сторон : 16: 9
    Режим частоты кадров : Постоянный
    Частота кадров : 23, 976 (24000/1001) кадра/сек
    Стандарт вещания : NTSC
    Цветовое пространство : YUV
    Субдискретизация насыщенности : 4: 2: 0
    Битовая глубина : 8 бит
    Тип развёртки : Прогрессивная
    Бит/(Пиксели*Кадры) : 0.362
    Размер потока : 6, 58 Гбайт (96%)
    Заголовок : MPEG-4 AVC Video/18.2 Mbps/1080p/23.976 fps/16: 9/High Profile 4.1
    Язык : English
    Default : Да
    Forced : Нет
    Цветовой диапазон : Limited
    Основные цвета : BT.709
    Характеристики трансфера : BT.709
    Коэффициенты матрицы : BT.709
    Аудио #1
    Идентификатор : 2
    Формат : AC-3
    Формат/Информация : Audio Coding 3
    Коммерческое название : Dolby Digital
    Идентификатор кодека : A_AC3
    Продолжительность : 52 м. 21 с.
    Вид битрейта : Постоянный
    Битрейт : 192 Кбит/сек
    Каналы : 2 канала
    Channel layout : L R
    Частота : 48, 0 КГц
    Частота кадров : 31, 250 кадров/сек (1536 SPF)
    Битовая глубина : 16 бит
    Метод сжатия : С потерями
    Размер потока : 71, 9 Мбайт (1%)
    Заголовок : rus/AC3/2.0/48 kHz/192 kbps/16-bit
    Язык : Russian
    ServiceKind/String : Complete Main
    Default : Да
    Forced : Да
    Аудио #2
    Идентификатор : 3
    Формат : AC-3
    Формат/Информация : Audio Coding 3
    Коммерческое название : Dolby Digital
    Идентификатор кодека : A_AC3
    Продолжительность : 52 м. 21 с.
    Вид битрейта : Постоянный
    Битрейт : 640 Кбит/сек
    Каналы : 2 канала
    Channel layout : L R
    Частота : 48, 0 КГц
    Частота кадров : 31, 250 кадров/сек (1536 SPF)
    Битовая глубина : 16 бит
    Метод сжатия : С потерями
    Задержка видео : 83 мс.
    Размер потока : 240 Мбайт (3%)
    Заголовок : eng/AC3/2.0/48 kHz/640 kbps/16-bit
    Язык : English
    ServiceKind/String : Complete Main
    Default : Нет
    Forced : Нет


    BBC. Экспедиция в Бирму/Expedition Burma (2011) BDRemux [H.264/1080p] (серии 1-3 из 3)
    Рейтинг →
     (голосов: 1, оценка 5/5, голосовать можно 1 раз )

    Другие торренты по теме:

  • Сергей Снегов | Экспедиция в иномир [Главы 1-02 из 31. Обновляемая] (2014) [MP3] скачать через торрент бесплатно
  • Аркадий и Борис Стругацкие | Экспедиция в преисподнюю (2014) [m4b|AAC] скачать через торрент бесплатно
  • Экспедиция / Extinction (2014) HDRip скачать через торрент бесплатно
  • Вымирание (Экспедиция) / Extinction (2014) BDRemux [H.264 / 1080p] [DVO] скачать через торрент бесплатно
  • Hidden Expedition 8: Smithsonian Castle / Секретная экспедиция. Смитсоновский замок (2014) [Ru] Unofficial [Collectors Edition / Коллекционное издание] скачать через торрент бесплатно
  • Марк Ходдер | Экспедиция в Лунные Горы (2013) [FB2] скачать через торрент бесплатно
  • BBC Horizon: Человек на Марсе. Экспедиция на красную планету / Man on Mars. Mission to the Red Planett (2014) IPTVRip скачать через торрент бесплатно
  • Mystery Expedition: Prisoners Of Ice / Роковая экспедиция: Пленники льда (2014) [Ru] Unofficial скачать через торрент бесплатно


    • Комментарии (0):

      Информация

      Информация

        Посетители, находящиеся в группе Гости, не могут оставлять комментарии в данной новости.

        ↓ Меню




        ↓ Опрос

        Вы добавили сайт в закладки?
        Да
        Нет


        Top 10 за месяц (Передачи)