.
Авторизация | Регистрация

Торрент скачать бесплатно

  • support: webmaster@btracker.club
» » Азбука Уральских пельменей. Ж (22.02.2019) WEB-DL [H.264 / 1080p-LQ] торрент скачать бесплатно


    Азбука Уральских пельменей. Ж (22.02.2019) WEB-DL [H.264 / 1080p-LQ] торрент скачать бесплатно

    Дата: 23-02-2019, 05:00 | .torrent скачали: 3

    Азбука Уральских пельменей. Ж (22.02.2019) WEB-DL [H.264 / 1080p-LQ]Телекомпания: СТС
    Жанр: Юмор
    Участники: Дмитрий Брекоткин, Сергей Ершов, Сергей Исаев, Сергей Калугин, Вячеслав Мясников, Александр Попов, Андрей Рожков, Дмитрий Соколов, Максим Ярица, Юля Михалкова

    Описание

    То, что осталось за кадром! Цикл выпусков с невошедшими миниатюрами и скетчами. А также самые смешные ляпы и оговорки!
    Релиз от: Алехаndr
    Продолжительность: 01: 12: 02
    Качество видео: WEB-DL
    Субтитры: Отсутствуют
    Видео: AVC/H.264, 1920x1080 (16: 9), ~3000 Kbps
    Аудио: AC3, 2 ch, 192 Kbps

    Общее
    Уникальный идентификатор : 80772853555986358181831221744633480830 (0x3CC44925F9B0CBA0994F9378D1E9867E)
    Полное имя : D: 1Азбука уральских пельменей.Ж (22.02.2019).by.Алехаndr (1).mkv
    Формат : Matroska
    Версия формата : Version 4
    Размер файла : 1, 61 Гбайт
    Продолжительность : 1 ч. 12 м.
    Общий поток : 3194 Кбит/сек
    Дата кодирования : UTC 2019-02-22 19: 22: 50
    Программа кодирования : mkvmerge v31.0.0 (\'Dolores In A Shoestand\') 32-bit
    Библиотека кодирования : libebml v1.3.6 + libmatroska v1.4.9/Lavf57.71.100
    Видео
    Идентификатор : 1
    Формат : AVC
    Формат/Информация : Advanced Video Codec
    Профиль формата : High@L4
    Настройки формата : CABAC/3 Ref Frames
    Параметр CABAC формата : Да
    Параметр RefFrames формата : 3 кадра
    Идентификатор кодека : V_MPEG4/ISO/AVC
    Продолжительность : 1 ч. 12 м.
    Битрейт : 3000 Кбит/сек
    Ширина : 1920 пикселей
    Высота : 1080 пикселей
    Соотношение сторон : 16: 9
    Режим частоты кадров : Постоянный
    Частота кадров : 25, 000 кадров/сек
    Цветовое пространство : YUV
    Субдискретизация насыщенности : 4: 2: 0
    Битовая глубина : 8 бит
    Тип развёртки : Прогрессивная
    Бит/(Пиксели*Кадры) : 0.058
    Размер потока : 1, 51 Гбайт (94%)
    Default : Да
    Forced : Нет
    Цветовой диапазон : Limited
    Основные цвета : BT.709
    Характеристики трансфера : BT.709
    Коэффициенты матрицы : BT.709
    Аудио
    Идентификатор : 2
    Формат : AC-3
    Формат/Информация : Audio Coding 3
    Коммерческое название : Dolby Digital
    Идентификатор кодека : A_AC3
    Продолжительность : 1 ч. 12 м.
    Вид битрейта : Постоянный
    Битрейт : 192 Кбит/сек
    Каналы : 2 канала
    Channel layout : L R
    Частота : 48, 0 КГц
    Частота кадров : 31, 250 кадров/сек (1536 SPF)
    Битовая глубина : 16 бит
    Метод сжатия : С потерями
    Размер потока : 98, 9 Мбайт (6%)
    ServiceKind/String : Complete Main
    Default : Да
    Forced : Нет

    Скриншоты для ознакомления



    Все одноименные релизы в Клубе
    Время раздачи: 24/7 (круглосуточно) (до появления первых 3-5 скачавших)


    Азбука Уральских пельменей. Ж (22.02.2019) WEB-DL [H.264/1080p-LQ]
    Рейтинг →
     (голосов: 1, оценка 3/5, голосовать можно 1 раз )

    Другие торренты по теме:

  • Азбука Уральских пельменей (2018.06.01) WEB-DL [H.264 / 1080p-LQ]
  • Азбука Уральских пельменей. Б (2018.06.08) WEB-DL [H.264 / 1080p-LQ]
  • Уральские пельмени - Азбука Уральских пельменей. Б (8.06.2018) SATRip
  • Азбука Уральских пельменей. В (2018.06.15) WEB-DLRip [H.264 / 1080p-LQ]
  • Азбука Уральских пельменей. Г (2018.10.16) WEB-DL [H.264 / 1080p-LQ]
  • Азбука Уральских пельменей. Д (18.01.2019) WEB-DL [H.264 / 1080p-LQ]
  • Азбука Уральских пельменей. Е (25.01.2019) WEB-DL [H.264 / 1080p-LQ]
  • Азбука Уральских пельменей. 3 (01.03.2019) WEB-DL [H.264 / 1080p-LQ]


    • Комментарии (0):

      Информация

      Информация

        Посетители, находящиеся в группе Гости, не могут оставлять комментарии в данной новости.

        ↓ Меню




        ↓ Опрос

        Вы добавили сайт в закладки?
        Да
        Нет


        Top 10 за месяц (Передачи)