.
Авторизация | Регистрация

Торрент скачать бесплатно

  • support: webmaster@btracker.club
» » Мир внизу / The World Below (2018) WEBRip [H.264 / 2160p] [4K, UHD] торрент скачать бесплатно


    Мир внизу / The World Below (2018) WEBRip [H.264 / 2160p] [4K, UHD] торрент скачать бесплатно

    Дата: 23-02-2019, 05:00 | .torrent скачали: 0

    Мир внизу / The World Below (2018) WEBRip [H.264 / 2160p] [4K, UHD]Производство: США
    Жанр: Документальный, видовой
    Режиссер: Брюс У. Берри-младший

    Описание

    Фотограф использовал общедоступный контент НАСА, чтобы создать медитативный короткометражный фильм, который смотрится так, будто является масштабированной версией популярных сегодня ландшафтных видео, сделанных с помощью дрона. Автор видео предлагает нам взглянуть на гигантские просторы нашей планеты с попадающими в кадр частями МКС, чтобы обеспечить дополнительную перспективу.
    Продолжительность: 00: 06: 03
    Качество видео: WEBRip
    Перевод: Не требуется (нет диалогов и комментариев)
    Субтитры: отсутствуют
    Видео: AVC/H.264, 3840x2160, ~14, 8 Mbps
    Аудио: AAC, 2 ch, 137 Kbps

    Общее
    Уникальный идентификатор : 160849208085042056711812033010677302879 (0x79026E3E4E068004822A33AA970BC65F)
    Полное имя : F: КИНОМИР ВНИЗУ.mkv
    Формат : Matroska
    Версия формата : Version 4
    Размер файла : 647 Мбайт
    Продолжительность : 6 м. 3 с.
    Общий поток : 14, 9 Мбит/сек
    Дата кодирования : UTC 2019-02-22 20: 14: 53
    Программа кодирования : mkvmerge v31.0.0 (\'Dolores In A Shoestand\') 64-bit
    Библиотека кодирования : libebml v1.3.6 + libmatroska v1.4.9
    Видео
    Идентификатор : 1
    Формат : AVC
    Формат/Информация : Advanced Video Codec
    Профиль формата : High@L5.2
    Настройки формата : CABAC/5 Ref Frames
    Параметр CABAC формата : Да
    Параметр RefFrames формата : 5 кадров
    Идентификатор кодека : V_MPEG4/ISO/AVC
    Продолжительность : 6 м. 3 с.
    Битрейт : 14, 8 Мбит/сек
    Ширина : 3840 пикселей
    Высота : 2160 пикселей
    Соотношение сторон : 16: 9
    Режим частоты кадров : Постоянный
    Частота кадров : 24, 000 кадра/сек
    Цветовое пространство : YUV
    Субдискретизация насыщенности : 4: 2: 0
    Битовая глубина : 8 бит
    Тип развёртки : Прогрессивная
    Бит/(Пиксели*Кадры) : 0.074
    Размер потока : 641 Мбайт (99%)
    Библиотека кодирования : x264 core 157 r10 545de2f
    Настройки программы : cabac=1/ref=5/deblock=1: 0: 0/analyse=0x3: 0x113/me=hex/subme=8/psy=1/psy_rd=1.00: 0.00/mixed_ref=1/me_range=16/chroma_me=1/trellis=2/8x8dct=1/cqm=0/deadzone=21, 11/fast_pskip=1/chroma_qp_offset=-2/threads=48/lookahead_threads=8/sliced_threads=0/nr=0/decimate=1/interlaced=0/bluray_compat=0/stitchable=1/constrained_intra=0/bframes=3/b_pyramid=2/b_adapt=2/b_bias=0/direct=3/weightb=1/open_gop=0/weightp=2/keyint=infinite/keyint_min=24/scenecut=40/intra_refresh=0/rc_lookahead=50/rc=crf/mbtree=1/crf=20.0/qcomp=0.60/qpmin=5/qpmax=69/qpstep=4/vbv_maxrate=24200/vbv_bufsize=66000/crf_max=0.0/nal_hrd=none/filler=0/ip_ratio=1.40/aq=1: 1.00
    Default : Да
    Forced : Нет
    Цветовой диапазон : Limited
    Основные цвета : BT.709
    Характеристики трансфера : BT.709
    Коэффициенты матрицы : BT.709
    Аудио
    Идентификатор : 2
    Формат : AAC LC
    Формат/Информация : Advanced Audio Codec Low Complexity
    Идентификатор кодека : A_AAC-2
    Продолжительность : 6 м. 3 с.
    Битрейт : 137 Кбит/сек
    Каналы : 2 канала
    Channel layout : L R
    Частота : 48, 0 КГц
    Частота кадров : 46, 875 кадров/сек (1024 SPF)
    Метод сжатия : С потерями
    Размер потока : 5, 94 Мбайт (1%)
    Default : Да
    Forced : Нет

    Скриншоты для ознакомления



    Все одноименные релизы в Клубе
    Время раздачи: с 18: 00 до 23: 00 (до появления первых 3-5 скачавших)


    Мир внизу/The World Below (2018) WEBRip [H.264/2160p] [4K, UHD]
    Рейтинг →
     (голосов: 1, оценка 5/5, голосовать можно 1 раз )

    Другие торренты по теме:

  • Вниз по лестнице / Внизу лестницы / Au bas de lechelle (2010) SATRip
  • Карвин Ви | Мир внизу (2017) [FB2]


    • Комментарии (0):

      Информация

      Информация

        Посетители, находящиеся в группе Гости, не могут оставлять комментарии в данной новости.

        ↓ Меню




        ↓ Опрос

        Вы добавили сайт в закладки?
        Да
        Нет


        Top 10 за месяц (Передачи)