.
Авторизация | Регистрация
Хочешь лучшие торренты? Добавь свой email!
Добавить

Торрент скачать бесплатно

  • support: webmaster@btracker.club
» » Футбол. Лига Чемпионов УЕФА 2018-2019. 1 / 8 Финала. 1-й матч. Шальке-04 (Германия) — Манчестер Сити (Англия) (20.02.2019) HDTVRip [H.264 / 720p-LQ] [hand made 50fps] торрент скачать бесплатно


    Футбол. Лига Чемпионов УЕФА 2018-2019. 1 / 8 Финала. 1-й матч. Шальке-04 (Германия) — Манчестер Сити (Англия) (20.02.2019) HDTVRip [H.264 / 720p-LQ] [hand made 50fps] торрент скачать бесплатно

    Опубликовал: fregat | Дата: 22-02-2019, 05:00 | .torrent скачали: 0

    Футбол. Лига Чемпионов УЕФА 2018-2019. 1 / 8 Финала. 1-й матч. Шальке-04 (Германия) — Манчестер Сити (Англия) (20.02.2019) HDTVRip [H.264 / 720p-LQ] [hand made 50fps]Телекомпания: Матч! Футбол 3 HD
    Жанр: Спорт
    Комментаторы: Эльвин Керимов, Тимур Журавель

    Описание
    20 февраля 2019, среда. 23: 00 МСК
    Лига Чемпионов УЕФА 2018-2019. Плей-офф
    1/8 Финала. 1-й матч.
    Шальке-04 (Гельзенкирхен, Германия) — Манчестер Сити (Манчестер, Англия)
    Стадион: Фельтинс-Арена (Гельзенкирхен, Германия), 54417 зрителей (87 % при вместимости 62271)
    Главный судья: Карлос Дель Серро Гранде (Испания)
    Ассистенты: Хуан Юсте Хименес (Испания); Роберто Алонсо Фернандес (Испания)
    Резервный: Хосе Санчес Мартинес (Испания)
    Релиз от: Striker
    Продолжительность: 01: 56: 04
    Качество видео: HDTVRip
    Язык озвучки: Русский
    Субтитры: отсутствуют
    Видео: AVC/H.264, 1280x720 (16: 9), ~3937 Kbps, 50 fps
    Аудио: AC3, 2 ch, 48 kHz, 192 Kbps

    Общее
    Уникальный идентификатор : 271451522564046009385648580718867027526 (0xCC37A95D0413977356AB55F45B409646)
    Полное имя : F: SPORTФутболЛига Чемпионов 2018-2019ChampionsLeague.2018-2019.Round.of.16.First.leg.Schalke-Man.City.HDTVRip.720p.mkv
    Формат : Matroska
    Версия формата : Version 2
    Размер файла : 3, 42 Гбайт
    Продолжительность : 1 ч. 56 м.
    Общий поток : 4212 Кбит/сек
    Программа кодирования : Lavf54.63.104
    Библиотека кодирования : Lavf54.63.104
    Видео
    Идентификатор : 1
    Формат : AVC
    Формат/Информация : Advanced Video Codec
    Профиль формата : High@L4.1
    Настройки формата : CABAC/4 Ref Frames
    Параметр CABAC формата : Да
    Параметр RefFrames формата : 4 кадра
    Параметр GOP формата : M=2, N=15
    Идентификатор кодека : V_MPEG4/ISO/AVC
    Продолжительность : 1 ч. 56 м.
    Битрейт : 3937 Кбит/сек
    Ширина : 1280 пикселей
    Высота : 720 пикселей
    Соотношение сторон : 16: 9
    Режим частоты кадров : Постоянный
    Частота кадров : 50, 000 кадров/сек
    Цветовое пространство : YUV
    Субдискретизация насыщенности : 4: 2: 0
    Битовая глубина : 8 бит
    Тип развёртки : Прогрессивная
    Бит/(Пиксели*Кадры) : 0.085
    Размер потока : 3, 19 Гбайт (93%)
    Default : Нет
    Forced : Нет
    Аудио
    Идентификатор : 2
    Формат : AC-3
    Формат/Информация : Audio Coding 3
    Коммерческое название : Dolby Digital
    Идентификатор кодека : A_AC3
    Продолжительность : 1 ч. 56 м.
    Вид битрейта : Постоянный
    Битрейт : 192 Кбит/сек
    Каналы : 2 канала
    Channel layout : L R
    Частота : 48, 0 КГц
    Частота кадров : 31, 250 кадров/сек (1536 SPF)
    Битовая глубина : 16 бит
    Метод сжатия : С потерями
    Размер потока : 159 Мбайт (5%)
    Язык : Russian
    ServiceKind/String : Complete Main
    Default : Да
    Forced : Нет

    Скриншоты для ознакомления



    Все одноименные релизы в Клубе
    Время раздачи: 24/7 (до 1 месяца)


    Футбол. Лига Чемпионов УЕФА 2018-2019. 1/8 Финала. 1-й матч. Шальке-04 (Германия) — Манчестер Сити (Англия) (20.02.2019) HDTVRip [H.264/720p-LQ] [hand made 50fps]
    Рейтинг →
     (голосов: 1, оценка 4/5, голосовать можно 1 раз )

    Другие торренты по теме:

  • Футбол. Лига Наций УЕФА 2018-2019. Лига B. Группа 1. 1-й тур. Чехия — Украина (06.09.2018) IPTVRip [H.264 / 1080p-LQ]
  • Футбол. Лига Наций УЕФА 2018-2019. Лига A. Группа 1. 1-й тур. Германия — Франция (06.09.2018) HDTVRip [H.264 / 720p-LQ] [hand made 50fps]
  • Футбол. Лига Наций УЕФА 2018-2019. Лига D. Группа 4. 1-й тур. Армения — Лихтенштейн (06.09.2018) HDTVRip [H.264 / 720p-LQ] [hand made 50fps]
  • Футбол. Лига Наций УЕФА 2018-2019. Лига D. Группа 1. 1-й тур. Казахстан — Грузия (06.09.2018) HDTVRip [H.264 / 720p-LQ] [hand made 50fps]
  • Футбол. Лига Наций УЕФА 2018-2019. Лига A. Группа 3. 1-й тур. Италия — Польша (07.09.2018) HDTVRip [H.264 / 720p-LQ] [hand made 50fps]
  • Футбол. Лига Наций УЕФА 2018-2019. Лига B. Группа 2. 1-й тур. Турция — Россия (07.09.2018) IPTVRip [H.264 / 1080p-LQ]
  • Футбол. Лига Наций УЕФА 2018-2019. Лига B. Группа 2. 1-й тур. Турция — Россия (07.09.2018) HDTVRip [H.264 / 720p-LQ] [hand made 50fps]
  • Футбол. Лига Наций УЕФА 2018-2019. Лига D. Группа 3. 1-й тур. Азербайджан — Косово (07.09.2018) IPTVRip [H.264 / 1080p-LQ]


    • Комментарии (0):

      Информация

      Информация

        Посетители, находящиеся в группе Гости, не могут оставлять комментарии в данной новости.

        ↓ Меню




        ↓ Опрос

        Вы добавили сайт в закладки?
        Да
        Нет


        Top 10 за месяц (Передачи)