.
Авторизация | Регистрация

Торрент скачать бесплатно

  • support: webmaster@btracker.club
» » NG: Авто SOS / Car SOS (2013-2018) [H.264 / 1080i-LQ] (сезон 1-6, серии 7-8,11-32 из 60) [Обновляемая] [AD] торрент скачать бесплатно


    NG: Авто SOS / Car SOS (2013-2018) [H.264 / 1080i-LQ] (сезон 1-6, серии 7-8,11-32 из 60) [Обновляемая] [AD] торрент скачать бесплатно

    Дата: 22-02-2019, 05:00 | .torrent скачали: 1

    NG: Авто SOS / Car SOS (2013-2018) [H.264 / 1080i-LQ] (сезон 1-6, серии 7-8,11-32 из 60) [Обновляемая] [AD]Телекомпания: National Geographic Channels
    Жанр: Документальный
    Участники: Tim Shaw, Fuzz Townshend

    Описание

    Возьмите одну любимую, но изрядно потрепанную машину, прибавьте хозяина, нуждающегося в помощи, тайком увезите этот автомобиль в прекрасно оборудованную мастерскую, в течение трех недель сдабривайте его смазкой, краской и ноу-хау по авторемонту, а затем верните его ничего не подозревающему владельцу, приправив щедрой порцией сюрприза. Когда автомеханики Тим и Фазз, жаждущие возвращать былую славу машинам, получают очередной вызов, будьте уверены, что скоро начнется настоящее пиршество преображения старых автомобилей.

    Релиз от: ROLEX-SABAN
    Продолжительность: 00: 44: 00 каждая серия
    Качество видео: HDTVRip
    Перевод: Одноголосый закадровый, профессиональный
    Реклама: Присутствуют текстовые вставки рекламы
    Видео: AVC/H.264, 1920x1080, ~5000 kbps
    Аудио: MP3, 2 ch, 192 Kbps

    Формат : Matroska
    Версия формата : Version 1
    Размер файла : 1.60 GiB
    Продолжительность : 43 min 59 s
    Общий поток : 5 192 kb/s
    Программа кодирования : Cyberlink Matroska Muxer v1.0.0
    Библиотека кодирования : libebml v0.7.8 + libmatroska v0.8.1
    ErrorDetectionType : Per level 1
    Video
    Идентификатор : 1
    Формат : AVC
    Формат/Информация : Advanced Video Codec
    Профиль формата : High@L4
    Настройки формата : CABAC/2 Ref Frames
    Параметр CABAC формата : Yes
    Параметр RefFrames формата : 2 frames
    Параметр GOP формата : M=3, N=13
    Идентификатор кодека : V_MPEG4/ISO/AVC
    Продолжительность : 43 min 59 s
    Битрейт : 4 896 kb/s
    Ширина : 1 920 pixels
    Высота : 1 080 pixels
    Соотношение сторон : 16: 9
    Режим частоты кадров : Constant
    Частота кадров : 25.000 FPS
    Цветовое пространство : YUV
    Субдискретизация насыщенности : 4: 2: 0
    Битовая глубина : 8 bits
    Тип развёртки : MBAFF
    Бит/(Пиксели*Кадры) : 0.094
    Размер потока : 1.50 GiB (94%)
    Язык : English
    Default : Yes
    Forced : No
    Audio
    Идентификатор : 2
    Формат : AC-3
    Формат/Информация : Audio Coding 3
    Коммерческое название : Dolby Digital
    Идентификатор кодека : A_AC3
    Продолжительность : 43 min 59 s
    Вид битрейта : Constant
    Битрейт : 192 kb/s
    Каналы : 2 channels
    Channel layout : L R
    Частота : 48.0 kHz
    Частота кадров : 31.250 FPS (1536 SPF)
    Битовая глубина : 16 bits
    Метод сжатия : Lossy
    Размер потока : 60.4 MiB (4%)
    Язык : English
    ServiceKind/String : Complete Main
    Default : Yes
    Forced : No
    07 CS-Triumph of the Stag S1E7
    08 CS-Austin Re-Powered S1E8
    11 CS-Cortina Conundrum S2E1
    12 CS-MG Miracle S2E2
    13 CS-A Porsche Puzzle S2E3
    14 CS-The Herald Angels S2E4
    15 CS-Land Rover Legend S2E5
    16 CS-Start the Dart S2E6
    17 CS-Morris Traveller Mayday S2E7
    18 CS-Danish Dilemma S2E8
    19 CS-Escort RS in Distress S2E9
    20 CS-Campervan Challenge S2E10
    21 CS-E-Type Emergency S3E1
    22 CS-Awesome Audi S3E2
    23 CS-Stirling Moss Sprite Special S3E3
    24 CS-Morgan Mayhem S3E4
    25 CS-Skyline Sensation S3E5
    26 CS-Alfa Romeo Renaissance S3E6
    27 CS-Tim\'s Golf GTI Obsession S3E7
    28 CS-Lancia Reborn S3E8
    29 CS-Little Black Corvette S3E9
    30 CS-Vive La Citroën S3E10
    31 CS-Volvo P1800 S4E1
    32 CS-AC Aceca S4E2

    Скриншоты для ознакомления



    Все одноименные релизы в Клубе
    Время раздачи: 24/7 (до появления первых 3-5 скачавших)


    NG: Авто SOS/Car SOS (2013-2018) [H.264/1080i-LQ] (сезон 1-6, серии 7-8,11-32 из 60) [Обновляемая] [AD]
    Рейтинг →
     (голосов: 1, оценка 4/5, голосовать можно 1 раз )

    Другие торренты по теме:

  • [Фотография] Авто-мото фото. Фотографии пользователей NoNaMe Club
  • Навител v9.1 с авто-определением настроек GPS для ГУ и автонавигаторов (16.10.2014) <Ru / Multi> скачать через торрент бесплатно
  • Егор Вершинин | Вождение авто в городе. Виртуальная автошкола (2011) [ISO]
  • [BOSCH ESI tronic] (3 / 2014) Каталог авто запчастей Bosch [Multi / Ru] скачать через торрент бесплатно
  • VA - Самая Лучшая Качающая Музыка для Авто. TOP 1000 (2015) [MP3|192-320 кб / с]<Club, Dance, House, Electro, Trance>
  • Контроль скорости авто + HUD 2.5.2 [Ru] скачать через торрент бесплатно
  • Подборка журналов | Купи Авто [Обновляемая] (2009-2015) [PDF] скачать через торрент бесплатно
  • Discovery. Дом для авто / House of Cars (2014) HDTVRip [Серия 1-1] [Обновляемая] скачать через торрент бесплатно


    • Комментарии (0):

      Информация

      Информация

        Посетители, находящиеся в группе Гости, не могут оставлять комментарии в данной новости.

        ↓ Меню




        ↓ Опрос

        Вы добавили сайт в закладки?
        Да
        Нет


        Top 10 за месяц (Передачи)