.
Авторизация | Регистрация

Торрент скачать бесплатно

  • support: webmaster@btracker.club
» » Голос. Дети (2019) HDTVRip [H.264 / 720p-LQ] (сезон 6, выпуски 1-1 из ) [обновляемая] торрент скачать бесплатно


    Голос. Дети (2019) HDTVRip [H.264 / 720p-LQ] (сезон 6, выпуски 1-1 из ) [обновляемая] торрент скачать бесплатно

    Дата: 22-02-2019, 05:00 | .torrent скачали: 1

    Голос. Дети (2019) HDTVRip [H.264 / 720p-LQ] (сезон 6, выпуски 1-1 из ) [обновляемая]Телекомпания: Первый канал HD
    Жанр: ТВ-шоу
    Наставники: Валерий Меладзе, Пелагея, Светлана Лобода
    Ведущий: Дмитрий Нагиев

    Описание

    C 15 февраля в шоу Голос дети новые наставники. В этот раз ими выступят Валерий Меладзе, Пелагея и Светлана Лобода. В шестом сезон любимого сериалае будут участвовать вокалисты, возраст которых не превышает 14 лет. В кастинге принимали участие не только российские, но и зарубежные вокалисты. В слепых прослушиваниях будет участвовать примерно 120 человек. В процессе слепых прослушиваний каждому из наставников нужно будет набрать команду из 15 человек. Во время поединков эти команды разобьют на тройки и из каждой тройки в следующий этап сможет попасть лишь один конкурсант.
    Продолжительность: 01: 39: 34
    Качество видео: HDTVRip
    Субтитры: отсутствуют
    Видео: AVC/H.264, 1280х720, ~2600 Kbps
    Аудио: AC3, 6 ch, 384 Kbps

    Общее
    Уникальный идентификатор : 224877813724965556676334104963751311520 (0xA92DE43B2FEAA9CE5A279F068EA778A0)
    Полное имя : K: golosDGolosDetiGolos.Deti.6.sezon.2019.HDTV(720p).DM.mkv
    Формат : Matroska
    Версия формата : Version 4
    Размер файла : 2, 08 Гбайт
    Продолжительность : 1 ч. 39 м.
    Общий поток : 2987 Кбит/сек
    Программа кодирования : XviD4PSP 7.0.170
    Библиотека кодирования : Lavf56.25.101
    ENCODING_INFO : MPEGTS MKV 720p/H264 X264 VBR-2P 2600kbps Custom/AC3 AC3 CBR 384kbps
    Видео
    Идентификатор : 1
    Формат : AVC
    Формат/Информация : Advanced Video Codec
    Профиль формата : High@L4
    Настройки формата : CABAC/9 Ref Frames
    Параметр CABAC формата : Да
    Параметр RefFrames формата : 9 кадров
    Идентификатор кодека : V_MPEG4/ISO/AVC
    Продолжительность : 1 ч. 39 м.
    Битрейт : 2600 Кбит/сек
    Ширина : 1280 пикселей
    Высота : 720 пикселей
    Соотношение сторон : 16: 9
    Режим частоты кадров : Постоянный
    Частота кадров : 25, 000 кадров/сек
    Цветовое пространство : YUV
    Субдискретизация насыщенности : 4: 2: 0
    Битовая глубина : 8 бит
    Тип развёртки : Прогрессивная
    Бит/(Пиксели*Кадры) : 0.113
    Размер потока : 1, 77 Гбайт (85%)
    Библиотека кодирования : x264 core 148 r2597M e86f3a1
    Настройки программы : cabac=1/ref=9/deblock=1: -2: -2/analyse=0x3: 0x133/me=umh/subme=9/psy=1/psy_rd=1.00: 0.20/mixed_ref=1/me_range=24/chroma_me=1/trellis=1/8x8dct=1/cqm=0/deadzone=21, 11/fast_pskip=1/chroma_qp_offset=-3/threads=10/lookahead_threads=1/sliced_threads=0/nr=0/decimate=1/interlaced=0/bluray_compat=0/constrained_intra=0/bframes=6/b_pyramid=2/b_adapt=2/b_bias=0/direct=3/weightb=0/open_gop=0/weightp=2/keyint=250/keyint_min=25/scenecut=40/intra_refresh=0/rc_lookahead=40/rc=2pass/mbtree=1/bitrate=2600/ratetol=1.0/qcomp=0.60/qpmin=0/qpmax=69/qpstep=4/cplxblur=20.0/qblur=0.5/ip_ratio=1.40/aq=1: 1.00
    Default : Да
    Forced : Нет
    Цветовой диапазон : Limited
    Основные цвета : BT.709
    Характеристики трансфера : BT.709
    Коэффициенты матрицы : BT.709
    Аудио
    Идентификатор : 2
    Формат : AC-3
    Формат/Информация : Audio Coding 3
    Коммерческое название : Dolby Digital
    Идентификатор кодека : A_AC3
    Продолжительность : 1 ч. 39 м.
    Вид битрейта : Постоянный
    Битрейт : 384 Кбит/сек
    Каналы : 6 каналов
    Channel layout : L R C LFE Ls Rs
    Частота : 48, 0 КГц
    Частота кадров : 31, 250 кадров/сек (1536 SPF)
    Битовая глубина : 16 бит
    Метод сжатия : С потерями
    Задержка видео : 27 мс.
    Размер потока : 274 Мбайт (13%)
    Язык : Russian
    ServiceKind/String : Complete Main
    Default : Да
    Forced : Нет

    Внимание! Раздача ведётся путём добавления новых серий; при каждом добавлении создаётся новый торрент.
    Чтобы начать докачку новой серии, пользователям необходимо сделать следующее:
    1. Остановить скачивание;
    2. Удалить старый торрент у себя из клиента (старые серии удалять не надо);
    3. Скачать новый торрент и запустить его у себя в клиенте вместо старого, при этом указать клиенту путь в старую папку куда и должно происходить скачивание новых серий. Ваш клиент при этом должен произвести хеширование (проверку) старой папки и будет докачивать только те серии, которых у вас ещё нет. Старые серии при этом не удаляются, а продолжают раздаваться! Eсли вы уже удалили старые серии, то предотвратить повторную закачку старых серий можно, отжав галочку в соответствующих местах при запуске нового торрента.

    Скриншоты для ознакомления







    Все одноименные релизы в Клубе
    Время раздачи: с 17: 00 до 01: 00 (до появления первых 3-5 скачавших)


    Голос. Дети (2019) HDTVRip [H.264/720p-LQ] (сезон 6, выпуски 1-1 из ) [обновляемая]
    Рейтинг →
     (голосов: 1, оценка 4/5, голосовать можно 1 раз )

    Другие торренты по теме:

  • Голос. Дети. Сезон №2. Выпуск №1 (2015.02.13) HDTVRip [H.264 / 720p-LQ] скачать через торрент бесплатно
  • Голос. Дети. Сезон №2. Выпуск №1 (2015.02.13) HDTV [H.264 / 1080i] скачать через торрент бесплатно
  • Голос. Дети. Сезон №2. Выпуск №1 (2015.02.13) SATRip скачать через торрент бесплатно
  • Голос. Дети. Сезон №2. Выпуск №2 (2015.02.20) HDTV [H.264 / 1080i] скачать через торрент бесплатно
  • Голос. Дети. Сезон №2. Выпуск №2 (2015.02.20) SATRip скачать через торрент бесплатно
  • Голос. Дети. Сезон №2. Выпуск №2 (2015.02.21) HDTVRip [H.264 / 720p-LQ]
  • Голос. Дети. Сезон №2. Лучшее (2015.04.24) SATRip скачать через торрент бесплатно
  • Голос. Дети (2016.02.20) HDTV [H.264 / 1080i] (сезон 3, выпуск 1)


    • Комментарии (0):

      Информация

      Информация

        Посетители, находящиеся в группе Гости, не могут оставлять комментарии в данной новости.

        ↓ Меню




        ↓ Опрос

        Вы добавили сайт в закладки?
        Да
        Нет


        Top 10 за месяц (Передачи)