.
Авторизация | Регистрация

Торрент скачать бесплатно

  • support: webmaster@btracker.club
» » Ежегодное послание Президента России Владимира Путина Федеральному Собранию (20.02.2019) HDTV [H.264 / 1080i-LQ] торрент скачать бесплатно


    Ежегодное послание Президента России Владимира Путина Федеральному Собранию (20.02.2019) HDTV [H.264 / 1080i-LQ] торрент скачать бесплатно

    Дата: 22-02-2019, 05:00 | .torrent скачали: 0

    Ежегодное послание Президента России Владимира Путина Федеральному Собранию (20.02.2019) HDTV [H.264 / 1080i-LQ]Телекомпания: Россия 1 HD
    Жанр: Документальный, Политика

    Описание

    Владимир Путин обратился с Посланием к Федеральному Собранию. Церемония оглашения прошла в Москве, в Гостином дворе. На церемонии присутствовали члены Совета Федерации, депутаты Государственной Думы, члены Правительства, руководители Конституционного и Верховного судов, губернаторский корпус.
    Продолжительность: 01: 29: 14
    Качество видео: HDTV
    Субтитры: отсутствуют
    Видео: AVC/H.264, 1920x1080 (16: 9), ~12.0 Mbps
    Аудио: AAC, 2 ch, 446 Kbps

    General
    Unique ID : 204297026541990779792296760239234525104 (0x99B22D14AB861624C5D85B973748A7B0)
    Complete name : D: Ежегодное послание Президента России Владимира Путина Федеральному Собранию 20.02.2019.mkv
    Format : Matroska
    Format version : Version 4
    File size : 7.74 GiB
    Duration : 1 h 29 min
    Overall bit rate : 12.4 Mb/s
    Encoded date : UTC 2019-02-20 19: 32: 31
    Writing application : mkvmerge v30.1.0 (\'Forever And More\') 64-bit
    Writing library : libebml v1.3.6 + libmatroska v1.4.9
    Cover : Yes
    Attachments : cover.png
    Video
    ID : 1
    Format : AVC
    Format/Info : Advanced Video Codec
    Format profile : High@L4
    Format settings : CABAC/4 Ref Frames
    Format settings, CABAC : Yes
    Format settings, ReFrames : 4 frames
    Codec ID : V_MPEG4/ISO/AVC
    Duration : 1 h 29 min
    Bit rate : 12.0 Mb/s
    Width : 1 920 pixels
    Height : 1 080 pixels
    Display aspect ratio : 16: 9
    Frame rate mode : Constant
    Frame rate : 25.000 FPS
    Standard : Component
    Color space : YUV
    Chroma subsampling : 4: 2: 0
    Bit depth : 8 bits
    Scan type : Interlaced
    Scan type, store method : Separated fields
    Scan order : Top Field First
    Bits/(Pixel*Frame) : 0.231
    Stream size : 7.46 GiB (96%)
    Language : Russian
    Default : Yes
    Forced : No
    Color range : Limited
    Color primaries : BT.709
    Transfer characteristics : BT.709
    Matrix coefficients : BT.709
    Audio
    ID : 2
    Format : AAC LC
    Format/Info : Advanced Audio Codec Low Complexity
    Codec ID : A_AAC-2
    Duration : 1 h 29 min
    Bit rate : 446 kb/s
    Channel(s) : 2 channels
    Channel layout : L R
    Sampling rate : 44.1 kHz
    Frame rate : 43.066 FPS (1024 SPF)
    Compression mode : Lossy
    Stream size : 284 MiB (4%)
    Language : Russian
    Default : Yes
    Forced : No

    Скриншоты для ознакомления




    Все одноименные релизы в Клубе
    Время раздачи: 23: 30-02: 00 (до появления первых 3-5 скачавших)


    Ежегодное послание Президента России Владимира Путина Федеральному Собранию (20.02.2019) HDTV [H.264/1080i-LQ]
    Рейтинг →
     (голосов: 1, оценка 5/5, голосовать можно 1 раз )

    Другие торренты по теме:

  • Ежегодное послание Президента РФ В. В. Путина Федеральному Собранию (03.12.2015) WEB-DL [H.264 / 720p-LQ] скачать через торрент бесплатно
  • Ежегодное послание Президента РФ В. В. Путина Федеральному Собранию (01.12.2016) WEB-DL [H.264 / 720p-LQ]
  • Ежегодное послание Президента РФ В. В. Путина Федеральному Собранию (01.12.2016) SATRip
  • Ежегодное послание Президента России Владимира Путина Федеральному Собранию (01.03.2018) HDTV [H.264 / 1080i-LQ]


    • Комментарии (0):

      Информация

      Информация

        Посетители, находящиеся в группе Гости, не могут оставлять комментарии в данной новости.

        ↓ Меню




        ↓ Опрос

        Вы добавили сайт в закладки?
        Да
        Нет


        Top 10 за месяц (Передачи)