.
Авторизация | Регистрация
Хочешь лучшие торренты? Добавь свой email!
Добавить

Торрент скачать бесплатно

  • support: webmaster@btracker.club
» » Песни нашего кино. "...Я поля влюбленным постелю" (2019) WEBRip торрент скачать бесплатно


    Песни нашего кино. "...Я поля влюбленным постелю" (2019) WEBRip торрент скачать бесплатно

    Опубликовал: fregat | Дата: 22-02-2019, 05:00 | .torrent скачали: 0

    Песни нашего кино. ...Я поля влюбленным постелю (2019) WEBRipТелекомпания: Россия, Москва медиа
    Жанр: Документальный, Телепередача

    Описание

    Владимир Высоцкий написал много песен для кино. Однако его кино-баллады написанные для фильма Стрелы Робина Гудастоят особняком. Каждая баллада – это целая история о дружбе, любви, ненависти или справедливости. Эти песни будят в любом слушателе самые лучшие, самые чистые чувства. Баллады должны были стать не столько украшением фильма, сколько его костяком, скелетом. Что же ужасного увидели чиновники в этих гениальных песнях Владимира Семеновича Высоцкого? Об этом – в программе Песни нашего кино.
    Релиз от: Вассилич
    Продолжительность: 00: 26: 02
    Качество видео: WEBRip
    Перевод: Отсутствует
    Видео: Xvid, 704x384, ~1700 кбит/с
    Аудио: MP3, 2 ch, 128 кбит/с

    Общее
    Полное имя : YA polya vlyublennym postelyu.avi
    Формат : AVI
    Формат/Информация : Audio Video Interleave
    Размер файла : 342 Мбайт
    Продолжительность : 26 м.
    Общий поток : 1836 Кбит/сек
    Программа кодирования : VirtualDubMod 1.5.10.3 |www.virtualdub-fr.org|| (build 2550/release)
    Библиотека кодирования : VirtualDubMod build 2550/release
    Видео
    Идентификатор : 0
    Формат : MPEG-4 Visual
    Профиль формата : Advanced Simple@L5
    Параметр BVOP формата : 1
    Параметр QPel формата : Нет
    Параметр GMC формата : Без точки перехода
    Параметр матрицы формата : Default (H.263)
    Идентификатор кодека : XVID
    Идентификатор кодека/Подсказка : XviD
    Продолжительность : 26 м.
    Битрейт : 1698 Кбит/сек
    Ширина : 704 пикселя
    Высота : 384 пикселя
    Соотношение сторон : 1, 85: 1
    Частота кадров : 25, 000 кадров/сек
    Цветовое пространство : YUV
    Субдискретизация насыщенности : 4: 2: 0
    Битовая глубина : 8 бит
    Тип развёртки : Прогрессивная
    Метод сжатия : С потерями
    Бит/(Пиксели*Кадры) : 0.251
    Размер потока : 316 Мбайт (92%)
    Библиотека кодирования : XviD 1.2.1 (UTC 2008-12-04)
    Аудио
    Идентификатор : 1
    Формат : MPEG Audio
    Версия формата : Version 1
    Профиль формата : Layer 3
    Идентификатор кодека : 55
    Идентификатор кодека/Подсказка : MP3
    Продолжительность : 26 м.
    Вид битрейта : Постоянный
    Битрейт : 128 Кбит/сек
    Каналы : 2 канала
    Частота : 44, 1 КГц
    Метод сжатия : С потерями
    Размер потока : 23, 8 Мбайт (7%)
    Выравнивание : Разделение по промежуткам
    Продолжительность промежутка : 40 мс. (1, 00 видеокадр)
    Время предзагрузки промежутка : 500 мс.
    Библиотека кодирования : LAME3.99r
    Настройки программы : -m s -V 4 -q 2 -lowpass 17 -b 128

    Скриншоты для ознакомления



    Все одноименные релизы в Клубе
    Время раздачи: 24/7 (до появления первых 3-5 скачавших)


    Песни нашего кино. "...Я поля влюбленным постелю" (2019) WEBRip
    Рейтинг →
     (голосов: 1, оценка 3/5, голосовать можно 1 раз )

    Другие торренты по теме:

  • Песни нашего кино (Товарищ песня) (2018) SATRip
  • VA - Золотая коллекция - Песни Нашего Кино (1998) 2CD [APE|Lossless|image + .cue] <Soundtrack>


    • Комментарии (0):

      Информация

      Информация

        Посетители, находящиеся в группе Гости, не могут оставлять комментарии в данной новости.

        ↓ Меню




        ↓ Опрос

        Вы добавили сайт в закладки?
        Да
        Нет


        Top 10 за месяц (Передачи)