.
Авторизация | Регистрация
Хочешь лучшие торренты? Добавь свой email!
Добавить

Торрент скачать бесплатно

  • support: webmaster@btracker.club
» » Глаз бури / Eye of the Storm (2014) WEB-DL [H.264 / 2160p] [4K, UHD] торрент скачать бесплатно


    Глаз бури / Eye of the Storm (2014) WEB-DL [H.264 / 2160p] [4K, UHD] торрент скачать бесплатно

    Опубликовал: fregat | Дата: 22-02-2019, 05:00 | .torrent скачали: 0

    Глаз бури / Eye of the Storm (2014) WEB-DL [H.264 / 2160p] [4K, UHD]Производство: Исландия
    Жанр: Документальный, видовой
    Режиссер: Генри Джун Ва Ли

    Описание

    Снятый в Исландии в период с февраля по март 2014 года, мне посчастливилось засвидетельствовать и снять фильм о солнечной вспышке класса X и выбросе корональной массы, поражающем нашу атмосферу. Получившееся сияние было зрелищем, в которое трудно поверить, даже лично, и я видел это своими собственными глазами. Насладись и ты!
    Продолжительность: 00: 05: 40
    Качество видео: WEB-DL
    Перевод: Не требуется (нет диалогов и комментариев)
    Субтитры: отсутствуют
    Видео: AVC/H.264, 4096x2160, ~60, 4 Mbps
    Аудио: AAC, 2 ch, 317 Kbps

    Общее
    Уникальный идентификатор : 142219436854113924713470459438744555072 (0x6AFE779B25EC986F39A8085FAF9D4E40)
    Полное имя : F: КИНОГЛАЗ БУРИ.mkv
    Формат : Matroska
    Версия формата : Version 4
    Размер файла : 2, 41 Гбайт
    Продолжительность : 5 м. 40 с.
    Режим общего битрейта : Переменный
    Общий поток : 60, 7 Мбит/сек
    Дата кодирования : UTC 2019-02-21 21: 30: 27
    Программа кодирования : mkvmerge v31.0.0 (\'Dolores In A Shoestand\') 64-bit
    Библиотека кодирования : libebml v1.3.6 + libmatroska v1.4.9
    Видео
    Идентификатор : 1
    Формат : AVC
    Формат/Информация : Advanced Video Codec
    Профиль формата : Main@L5.1
    Настройки формата : CABAC/3 Ref Frames
    Параметр CABAC формата : Да
    Параметр RefFrames формата : 3 кадра
    Параметр GOP формата : M=4, N=23
    Идентификатор кодека : V_MPEG4/ISO/AVC
    Продолжительность : 5 м. 40 с.
    Вид битрейта : Переменный
    Битрейт : 60, 4 Мбит/сек
    Максимальный битрейт : 75, 0 Мбит/сек
    Ширина : 4096 пикселей
    Высота : 2160 пикселей
    Соотношение сторон : 1, 896
    Режим частоты кадров : Постоянный
    Частота кадров : 23, 976 (24000/1001) кадра/сек
    Стандарт вещания : NTSC
    Цветовое пространство : YUV
    Субдискретизация насыщенности : 4: 2: 0
    Битовая глубина : 8 бит
    Тип развёртки : Прогрессивная
    Бит/(Пиксели*Кадры) : 0.285
    Размер потока : 2, 39 Гбайт (99%)
    Язык : English
    Default : Да
    Forced : Нет
    Цветовой диапазон : Limited
    Аудио
    Идентификатор : 2
    Формат : AAC LC
    Формат/Информация : Advanced Audio Codec Low Complexity
    Идентификатор кодека : A_AAC-2
    Продолжительность : 5 м. 40 с.
    Битрейт : 317 Кбит/сек
    Каналы : 2 канала
    Channel layout : L R
    Частота : 48, 0 КГц
    Частота кадров : 46, 875 кадров/сек (1024 SPF)
    Метод сжатия : С потерями
    Задержка видео : -42 мс.
    Размер потока : 12, 9 Мбайт (1%)
    Язык : English
    Default : Да
    Forced : Нет

    Скриншоты для ознакомления



    Все одноименные релизы в Клубе
    Время раздачи: с 18: 00 до 23: 00 (до появления первых 3-5 скачавших)


    Глаз бури/Eye of the Storm (2014) WEB-DL [H.264/2160p] [4K, UHD]
    Рейтинг →
     (голосов: 1, оценка 3/5, голосовать можно 1 раз )

    Другие торренты по теме:

  • Проект "Золотой глаз" (2014) SATRip [H.264] (Сезон 1, Серия 1-4 из 4) скачать через торрент бесплатно
  • Проект "Золотой глаз" (2014) SATRip (Серии 1-4 из 4) скачать через торрент бесплатно
  • Третий глаз / Third Eye (2014) DVDRip
  • Синбад и Глаз Тигра / Sinbad and the Eye of the Tiger (1977) BDRemux [1080p]
  • Кошачий глаз / Cats Eye (1985) Blu-Ray [1080p]
  • Кошачий глаз / Cats Eye (1985) BDRip [H.264] скачать через торрент бесплатно
  • Гленн Гринвальд | Негде спрятаться. Эдвард Сноуден и зоркий глаз Дядюшки Сэма (2014) [FB2] скачать через торрент бесплатно
  • Фитнес для глаз 1.4 [Ru] скачать через торрент бесплатно


    • Комментарии (0):

      Информация

      Информация

        Посетители, находящиеся в группе Гости, не могут оставлять комментарии в данной новости.

        ↓ Меню




        ↓ Опрос

        Вы добавили сайт в закладки?
        Да
        Нет


        Top 10 за месяц (Передачи)