.
Авторизация | Регистрация
Хочешь лучшие торренты? Добавь свой email!
Добавить

Торрент скачать бесплатно

  • support: webmaster@btracker.club
» » NGW: Схватка тигров / Clash of Tigers (2018) HDTV [H.264 / 1080i-LQ] торрент скачать бесплатно


    NGW: Схватка тигров / Clash of Tigers (2018) HDTV [H.264 / 1080i-LQ] торрент скачать бесплатно

    Опубликовал: fregat | Дата: 22-02-2019, 05:00 | .torrent скачали: 0

    NGW: Схватка тигров / Clash of Tigers (2018) HDTV [H.264 / 1080i-LQ]Производство: Индия, Grey Films India PVT, Nat Geo Wild
    Жанр: Документальный, природа, флора, фауна
    Режиссер: Налла Мату

    Описание

    Кришна, шестилетняя тигрица, родила во второй раз, произведя на свет четырех здоровых тигрят. Тигрица ведет очень скрытный образ жизни, заботясь о своих детенышах, для которых она единственная опора в жизни.
    Релиз от: Zakol
    Продолжительность: 00: 43: 58
    Качество видео: HDTV
    Перевод: Одноголосый закадровый, профессиональный
    Субтитры: отсутствуют
    Видео: AVC/H.264, 1920x1080, ~7035 Kbps
    Аудио#1: MP2, 2 ch, 192 Kbps | Русский
    Аудио#2: MP2, 2 ch, 192 Kbps | Английский

    Общее
    Идентификатор : 1 (0x1)
    Полное имя : F: КИНОСхватка тигров 1080 (2018).ts
    Формат : MPEG-TS
    Размер файла : 2, 40 Гбайт
    Продолжительность : 43 м. 59 с.
    Режим общего битрейта : Переменный
    Общий поток : 7809 Кбит/сек
    Видео
    Идентификатор : 1154 (0x482)
    Идентификатор меню : 135 (0x87)
    Формат : AVC
    Формат/Информация : Advanced Video Codec
    Профиль формата : Main@L4
    Настройки формата : CABAC/4 Ref Frames
    Параметр CABAC формата : Да
    Параметр RefFrames формата : 4 кадра
    Параметр GOP формата : M=4, N=24
    Идентификатор кодека : 27
    Продолжительность : 43 м. 58 с.
    Битрейт : 7035 Кбит/сек
    Ширина : 1920 пикселей
    Высота : 1080 пикселей
    Соотношение сторон : 16: 9
    Частота кадров : 25, 000 кадров/сек
    Стандарт вещания : Component
    Цветовое пространство : YUV
    Субдискретизация насыщенности : 4: 2: 0
    Битовая глубина : 8 бит
    Тип развёртки : Чересстрочная
    Метод сохранения типа развёртки : Раздельные поля
    Порядок развёртки : Верхнее поле первое
    Бит/(Пиксели*Кадры) : 0.136
    Размер потока : 2, 16 Гбайт (90%)
    Цветовой диапазон : Limited
    Основные цвета : BT.709
    Характеристики трансфера : BT.709
    Коэффициенты матрицы : BT.709
    Аудио #1
    Идентификатор : 1155 (0x483)
    Идентификатор меню : 135 (0x87)
    Формат : MPEG Audio
    Версия формата : Version 1
    Профиль формата : Layer 2
    Идентификатор кодека : 3
    Продолжительность : 43 м. 58 с.
    Вид битрейта : Постоянный
    Битрейт : 192 Кбит/сек
    Каналы : 2 канала
    Частота : 48, 0 КГц
    Частота кадров : 41, 667 кадра/сек (1152 SPF)
    Метод сжатия : С потерями
    Задержка видео : -40 мс.
    Размер потока : 60, 4 Мбайт (2%)
    Язык : Russian
    Аудио #2
    Идентификатор : 1156 (0x484)
    Идентификатор меню : 135 (0x87)
    Формат : MPEG Audio
    Версия формата : Version 1
    Профиль формата : Layer 2
    Идентификатор кодека : 3
    Продолжительность : 43 м. 58 с.
    Вид битрейта : Постоянный
    Битрейт : 192 Кбит/сек
    Каналы : 2 канала
    Частота : 48, 0 КГц
    Частота кадров : 41, 667 кадра/сек (1152 SPF)
    Метод сжатия : С потерями
    Задержка видео : -40 мс.
    Размер потока : 60, 4 Мбайт (2%)
    Язык : English

    Скриншоты для ознакомления



    Все одноименные релизы в Клубе
    Время раздачи: с 18: 00 до 23: 00 (до появления первых 3-5 скачавших)


    NGW: Схватка тигров/Clash of Tigers (2018) HDTV [H.264/1080i-LQ]
    Рейтинг →
     (голосов: 1, оценка 4/5, голосовать можно 1 раз )

    Другие торренты по теме:

  • Схватка (2014) DVB (серии 1-4 из 4) скачать через торрент бесплатно
  • Схватка (2014) SATRip (Серии 1-4 из 4) скачать через торрент бесплатно
  • Специальный репортаж. Деловая схватка (2014.10.13) SATRip
  • Схватка / The Grey (2011) BDRip [720p] [hand made 60fps] скачать через торрент бесплатно
  • Megamind: Ultimate Showdown / Мегамозг: Решающая схватка (2010) [PS3] [EUR] 3.41 [Cobra ODE / E3 ODE PRO ISO] [License] [En / Multi] скачать через торрент бесплатно
  • Железная схватка / Our robot overlords (2014) WEB-DLRip [H.264] [MP4|720x404] [EN] скачать через торрент бесплатно
  • Вольф: Схватка в участке / Wolff - Kampf im Revier (2012) HDTVRip скачать через торрент бесплатно
  • Схватка / Heat (1995) BDRip скачать через торрент бесплатно


    • Комментарии (0):

      Информация

      Информация

        Посетители, находящиеся в группе Гости, не могут оставлять комментарии в данной новости.

        ↓ Меню




        ↓ Опрос

        Вы добавили сайт в закладки?
        Да
        Нет


        Top 10 за месяц (Передачи)